2 сезон

iTunes

MVO

1

2 сезон

iTunes

iTunes

1 сезон

RePack

30

Ultimate

ВАЖНО

ИГРА 18+

pack

RePack

MK11
pack

Легкие деньги

RePack

jed

RePack

fifa19

RePack

RDR2

RePack

NEED FOR SPEED™ PAYBACK

4 сезон

9 сезон

Бесстыжие 9 сезон

Все сериалы

все сериалы на PB.wtf

RePack

FAR CRY 5

Anonymous, доброй ночи, мы не успеваем собрать деньги на оплату серверов за декабрь и январь, помогите нам пожалуйста в это трудное время. В качестве благодарности мы отключим Вам всю рекламу на сайте (укажите свой ник в строку Ваше имя)!

×
  
Magnet ссылка

Metallica 30th Anniversary Show's in The Fillmore [2011г., Heavy metal, thrash metal, USA, DVD9] pb.wtf

Metallica 30th Anniversary Show's in The Fillmore через торрент pb.wtf

Размер: 14.59 GB | Добавлен: 7 лет 5 мес. назад | Торрент скачан:8 раз
Скачать  

17-08-2013 15:20 Metallica 30th Anniversary Show's in The Fillmore Скачать торрент  

Metallica 30th Anniversary Show's in The Fillmore Год выпуска: 2011
Страна: USA
Жанр: Heavy metal, thrash metal
Продолжительность: 02:53:55
Перевод: оригинал
1. "The Call of Ktulu"
2. "No Remorse"
3. "The Shortest Straw"
4. "Leper Messiah"
5. "Kirk Solo"
6. "The Day That Never Comes"
7. "Carpe Diem Baby"
8. "Hate Train"
9. "Please Don't Judas Me"
10. "Wherever I May Roam"
11. "Sad But True"
12. "Anashesia Pulling Teeth Jam"
13. "No Leaf Clover"
14. "One"
15. "Harvester of Sorrow"
16. "Damage, Inc."
17. "Motorcycle Man"
18. "The Prince"
19. "It's Electric"
20. "Helpless"
21. "Am I Evil?"
22. "Seek & Destroy"
Качество: DVD9
Формат: MPEG
Видео кодек: MPEG2
Аудио кодек: LPCM
Видео: 720x576, 25.000 fps, 9500.0 kbit/s
Аудио: LPCM, 48.0 kHz, 2 chn, 16 bit, 1536.0 kbit/s
Format : MPEG-PS
File size : 472 MiB
Duration : 7mn 13s
Overall bit rate mode : Variable
Overall bit rate : 9 144 Kbps

Video
ID : 224 (0xE0)
Format : MPEG Video
Format version : Version 2
Format profile : Main@Main
Format settings, BVOP : Yes
Format settings, Matrix : Default
Format settings, GOP : M=3, N=12
Duration : 7mn 13s
Bit rate mode : Variable
Bit rate : 7 426 Kbps
Maximum bit rate : 9 500 Kbps
Width : 720 pixels
Height : 576 pixels
Display aspect ratio : 16:9
Frame rate : 25.000 fps
Standard : PAL
Color space : YUV
Chroma subsampling : 4:2:0
Bit depth : 8 bits
Scan type : Progressive
Compression mode : Lossy
Bits/(Pixel*Frame) : 0.716
Time code of first frame : 00:00:00:00
Time code source : Group of pictures header
Stream size : 384 MiB (81%)

Audio
ID : 189 (0xBD)-160 (0xA0)
Format : PCM
Format settings, Endianness : Big
Format settings, Sign : Signed
Muxing mode : DVD-Video
Duration : 7mn 13s
Bit rate mode : Constant
Bit rate : 1 536 Kbps
Channel(s) : 2 channels
Sampling rate : 48.0 KHz
Bit depth : 16 bits
Delay relative to video : -80ms
Stream size : 79.3 MiB (17%)

Menu
pb.wtf



Скачать Metallica 30th Anniversary Show's in The Fillmore через торрент http://pic.kartinco.top/images/3/vzfgxgaa26.png Скачать фильм Metallica 30th Anniversary Showчерез торрент бесплантно в хорошем качестве Год выпуска: 2011Страна: USAЖанр: Heavy metal, thrash metalПродолжительность: 02:53:55Перевод: оригинал "The Call of Ktulu" "No ... 9.5 10 4
Info! Золотая раздача, скачанное не засчитывается.
Торрент: Зарегистрирован [2013-08-17 15:20] · скачан: 8 раз
Статус: √ проверено
Размер: 14.59 GB
Как cкачать? Как скачать Metallica 30th Anniversary Show's in The Fillmore через торрент | UTorrent

28-11-2019 20:33  

Отключить всю рекламу на сайте

17-08-2013 16:48 Metallica 30th Anniversary Show's in The Fillmore Скачать торрент  

в таком качестве уж лучше Майкла Джек
сона смотреть а за релиз спасибоpb.wtf



17-08-2013 18:51 Metallica 30th Anniversary Show's in The Fillmore Скачать торрент  

Рипа не будет?pb.wtf



11-11-2013 18:55 Metallica 30th Anniversary Show's in The Fillmore Скачать торрент  

Народ !!!!!!!!!!!!!! А где раздача !!!!!!!!!!!!????????????? :ireful: :pb.wtf



    Дорогой пользователь! Огромная просьба, поблагодарите релизера, оцените раздачу и оставьте свои комментарий, если Вы скачали Metallica 30th Anniversary Show's in The Fillmore через торрент бесплатно! Внесите свою лепту в развитие PiratBit!
    Комментировать посты могут только пользователи прошедшие не сложную регистрацию
    Показать сообщения:    

    Metallica 30th Anniversary Show's in The Fillmore через торрент
    Скачать бесплатно Metallica 30th Anniversary Show's in The Fillmore
    Metallica 30th Anniversary Show's in The Fillmore скачать торрент
    Metallica 30th Anniversary Show's in The Fillmore смотреть онлайн
    Cкачать фильм Metallica 30th Anniversary Show's in The Fillmore бесплатно
    Metallica 30th Anniversary Show's in The Fillmore скачать торрент в хорошем качестве
    Metallica 30th Anniversary Show's in The Fillmore смотреть онлайн бесплатно в хорошем качестве


    Вы не можете начинать темы
    Вы не можете отвечать на сообщения
    Вы не можете редактировать свои сообщения
    Вы не можете удалять свои сообщения
    Вы не можете голосовать в опросах
    Вы не можете прикреплять файлы к сообщениям
    Вы можете скачивать файлы