Ссылка на приватное зеркало нашего сайта всего за 1$. Внимание количество ограничено!!!

2 сезон

iTunes

1 сезон

1

2 сезон

2 сезон

iTunes

1 сезон

RePack

30

Ultimate

ВАЖНО

ИГРА 18+

pack

RePack

MK11
pack

Забери бонус

RePack

jed

!!Акция!!

Alien_Rage

RePack

fifa19

RePack

Assassins Creed: Odyssey

RePack

NEED FOR SPEED™ PAYBACK

4 сезон

9 сезон

Бесстыжие 9 сезон

Все сериалы

все сериалы на PB.wtf

RePack

FAR CRY 5
  

Metallica Orion Musik Festival [2012г., Heavy metal, thrash metal, USA, TS] pb.wtf

Metallica Orion Musik Festival через торрент pb.wtf

Размер: 17.46 GB | Добавлен: 7 лет 3 мес. назад | Торрент скачан:6 раз
Скачать  

17-08-2013 16:26 Metallica Orion Musik Festival Скачать торрент  

Metallica Orion Musik Festival Год выпуска: 2012
Страна: USA
Жанр: Heavy metal, thrash metal
Продолжительность: 02:13:17
1. "Hit the Lights"
2. "Master of Puppets"
3. "Fuel"
4. "For Whom the Bell Tolls"
5. "The Shortest Straw"
6. "The Struggle Within"
7. "My Friend of Misery"
8. "The God That Failed"
9. "Of Wolf and Man"
10. "Nothing Else Matters"
11. "Through the Never"
12. "Don't Tread on Me"
13. "Wherever I May Roam"
14. "The Unforgiven"
15. "Holier Than Thou"
16. "Sad But True"
17. "Enter Sandman"
18. "Blackened"
19. "One"
20. "Seek & Destroy"
Качество: HDTV
Формат: TS
Видео кодек: MPEG2
Аудио кодек: MPEG Audio
Видео: 1920x1080, 29.970 fps, 17873.2 kbit/s
Аудио: 48.0 kHz, 2 chn, 384.0 kbit/s
Format : MPEG-TS
File size : 17.5 GiB
Duration : 2h 13mn
Overall bit rate mode : Variable
Overall bit rate : 18.8 Mbps

Video
ID : 308 (0x134)
Menu ID : 1 (0x1)
Format : MPEG Video
Format version : Version 2
Format profile : Main@High
Format settings, BVOP : No
Format settings, Matrix : Custom
Format settings, GOP : M=3, N=12
Codec ID : 2
Duration : 2h 13mn
Bit rate mode : Variable
Bit rate : 17.4 Mbps
Maximum bit rate : 17.9 Mbps
Width : 1 920 pixels
Height : 1 080 pixels
Display aspect ratio : 16:9
Frame rate : 29.970 fps
Standard : Component
Color space : YUV
Chroma subsampling : 4:2:0
Bit depth : 8 bits
Scan type : Interlaced
Scan order : Top Field First
Compression mode : Lossy
Bits/(Pixel*Frame) : 0.281
Time code of first frame : 00:00:00;00
Time code source : Group of pictures header
Stream size : 16.2 GiB (93%)

Audio
ID : 256 (0x100)
Menu ID : 1 (0x1)
Format : MPEG Audio
Format version : Version 1
Format profile : Layer 2
Codec ID : 3
Duration : 2h 13mn
Bit rate mode : Constant
Bit rate : 384 Kbps
Channel(s) : 2 channels
Sampling rate : 48.0 KHz
Compression mode : Lossy
Delay relative to video : 9ms
Stream size : 366 MiB (2%)
Language : English
pb.wtf



Скачать Metallica Orion Musik Festival через торрент http://pic.kartinco.top/images/3/am6pgu6ilw.jpg Скачать фильм Metallica Orion Musik Festival [2012г., Heavy metal, thrash metal, USA, TS]через торрент бесплантно в хорошем качестве Год выпуска: 2012Страна: USAЖанр: Heavy metal, thrash metalПродолжительность: 02:13:17 "Hit the Lights" "Master of Puppets" "Fuel" ... 10 10 2
Info! Золотая раздача, скачанное не засчитывается.
Торрент: Зарегистрирован [2013-08-17 16:26] · скачан: 6 раз
Статус: √ проверено
Размер: 17.46 GB
Как cкачать? Как скачать Metallica Orion Musik Festival через торрент | qTorrent

28-11-2019 20:33  

Отключить всю рекламу на сайте

    Дорогой пользователь! Огромная просьба, поблагодарите релизера, оцените раздачу и оставьте свои комментарий, если Вы скачали Metallica Orion Musik Festival через торрент бесплатно! Внесите свою лепту в развитие PiratBit!
    Комментировать посты могут только пользователи прошедшие не сложную регистрацию
    Показать сообщения:    

    Metallica Orion Musik Festival через торрент
    Скачать бесплатно Metallica Orion Musik Festival
    Metallica Orion Musik Festival скачать торрент
    Metallica Orion Musik Festival смотреть онлайн
    Cкачать фильм Metallica Orion Musik Festival бесплатно
    Metallica Orion Musik Festival скачать торрент в хорошем качестве
    Metallica Orion Musik Festival смотреть онлайн бесплатно в хорошем качестве


    Вы не можете начинать темы
    Вы не можете отвечать на сообщения
    Вы не можете редактировать свои сообщения
    Вы не можете удалять свои сообщения
    Вы не можете голосовать в опросах
    Вы не можете прикреплять файлы к сообщениям
    Вы можете скачивать файлы