Ссылка на приватное зеркало нашего сайта всего за 1$. Внимание количество ограничено!!!

2 сезон

iTunes

1 сезон

1

2 сезон

2 сезон

iTunes

1 сезон

RePack

30

Новинка

ВАЖНО

ИГРА 18+

pack

RePack

MK11
pack

Забери бонус

RePack

jed

!!Акция!!

Alien_Rage

RePack

fifa19

RePack

Assassins Creed: Odyssey

RePack

NEED FOR SPEED™ PAYBACK

4 сезон

9 сезон

Бесстыжие 9 сезон

Все сериалы

все сериалы на PB.wtf

RePack

FAR CRY 5
  

Metallica Rock Am Ring [2012г., Heavy metal, thrash metal, USA, SATRip] pb.wtf

Metallica Rock Am Ring через торрент pb.wtf

Размер: 6.01 GB | Добавлен: 7 лет 3 мес. назад | Торрент скачан:22 раза
Скачать  

17-08-2013 16:50 Metallica Rock Am Ring Скачать торрент  

Metallica Rock Am Ring Год выпуска: 2012
Страна: USA
Жанр: Heavy metal, thrash metal
Продолжительность: 02:10:04
1. "Hit the Lights"
2. "Master of Puppets"
3. "Ride the Lightning"
4. "For Whom the Bell Tolls"
5. "Hell and Back"
6. "The Struggle Within"
7. "My Friend of Misery"
8. "The God That Failed"
9. "Of Wolf & Man"
10. "Nothing Else Matters"
11. "Through the Never"
12. "Don't Tread On Me"
13. "Wherever I May Roam"
14. "The Unforgiven"
15. "Holier Than Thou"
16. "Sad But True"
17. "Enter Sandman"
18. "Blackened"
19. "One"
20. "Seek & Destroy"
Качество: SATRip
Формат: MPG
Видео кодек: MPEG2
Аудио кодек: Dolby AC3
Видео: 720x576, 25.000 fps, 15000.0 kbit/s
Аудио: 48.0 kHz, 6 chn, 384.0 kbit/s
Format : MPEG-PS
File size : 6.01 GiB
Duration : 2h 10mn
Overall bit rate mode : Variable
Overall bit rate : 6 617 Kbps
Writing library : (c) 1998-2011 Womble Multimedia, Inc. / MPEG Video Wizard DVD 5.0.1.100 (03/2011) / Dec 19 2011

Video
ID : 224 (0xE0)
Format : MPEG Video
Format version : Version 2
Format profile : Main@Main
Format settings, BVOP : No
Format settings, Matrix : Custom
Format settings, GOP : Variable
Duration : 2h 10mn
Bit rate mode : Variable
Bit rate : 6 102 Kbps
Maximum bit rate : 15.0 Mbps
Width : 720 pixels
Height : 576 pixels
Display aspect ratio : 16:9
Frame rate : 25.000 fps
Standard : PAL
Color space : YUV
Chroma subsampling : 4:2:0
Bit depth : 8 bits
Scan type : Interlaced
Scan order : Top Field First
Compression mode : Lossy
Bits/(Pixel*Frame) : 0.589
Time code of first frame : 00:00:00:00
Time code source : Group of pictures header
Stream size : 5.54 GiB (92%)
Writing library : (c) 1998-2011 Womble Multimedia, Inc. / MPEG Video Wizard DVD 5.0.1.100 (03/2011) / Dec 19 2011

Audio
ID : 189 (0xBD)-128 (0x80)
Format : AC-3
Format/Info : Audio Coding 3
Mode extension : CM (complete main)
Format settings, Endianness : Big
Muxing mode : DVD-Video
Duration : 2h 10mn
Bit rate mode : Constant
Bit rate : 384 Kbps
Channel(s) : 6 channels
Channel positions : Front: L C R, Side: L R, LFE
Sampling rate : 48.0 KHz
Bit depth : 16 bits
Compression mode : Lossy
Stream size : 357 MiB (6%)
pb.wtf



Скачать Metallica Rock Am Ring через торрент http://pic.kartinco.top/images/3/u7h1d57d6z.png Скачать фильм Metallica Rock Am Ring [2012г., Heavy metal, thrash metal, USA, SATRip]через торрент бесплантно в хорошем качестве Год выпуска: 2012Страна: USAЖанр: Heavy metal, thrash metalПродолжительность: 02:10:04 "Hit the Lights" "Master of Puppets" "Ride the ... 8.5 10 6
Info! Золотая раздача, скачанное не засчитывается.
Торрент: Зарегистрирован [2013-08-17 16:50] · скачан: 22 раз
Статус: √ проверено
Размер: 6.01 GB
Как cкачать? Как скачать Metallica Rock Am Ring через торрент | qTorrent

% Раздел Тема Автор DL S | L
Концерты [ 12.61 GB ] Metallica - Live At Rock Am Ring 2014 [2014 Thrash Metal HDTV]720p sergej644 Скачать
1 | 0


Последний раз редактировалось: Metal2 (2013-08-17 20:04), всего редактировалось 1 раз

28-11-2019 20:33  

Отключить всю рекламу на сайте

18-08-2013 08:00 Metallica Rock Am Ring Скачать торрент  

а просто есть клипы их?pb.wtf



    Дорогой пользователь! Огромная просьба, поблагодарите релизера, оцените раздачу и оставьте свои комментарий, если Вы скачали Metallica Rock Am Ring через торрент бесплатно! Внесите свою лепту в развитие PiratBit!
    Комментировать посты могут только пользователи прошедшие не сложную регистрацию
    Показать сообщения:    

    Metallica Rock Am Ring через торрент
    Скачать бесплатно Metallica Rock Am Ring
    Metallica Rock Am Ring скачать торрент
    Metallica Rock Am Ring смотреть онлайн
    Cкачать фильм Metallica Rock Am Ring бесплатно
    Metallica Rock Am Ring скачать торрент в хорошем качестве
    Metallica Rock Am Ring смотреть онлайн бесплатно в хорошем качестве


    Вы не можете начинать темы
    Вы не можете отвечать на сообщения
    Вы не можете редактировать свои сообщения
    Вы не можете удалять свои сообщения
    Вы не можете голосовать в опросах
    Вы не можете прикреплять файлы к сообщениям
    Вы можете скачивать файлы