2 сезон

iTunes

MVO

1

2 сезон

iTunes

iTunes

1 сезон

RePack

30

Новинка

ВАЖНО

ИГРА 18+

pack

RePack

MK11
pack

Легкие деньги

RePack

jed

RePack

fifa19

RePack

RDR2

RePack

NEED FOR SPEED™ PAYBACK

4 сезон

9 сезон

Бесстыжие 9 сезон

Все сериалы

все сериалы на PB.wtf

RePack

FAR CRY 5

Anonymous, доброй ночи, мы не успеваем собрать деньги на оплату серверов за декабрь и январь, помогите нам пожалуйста в это трудное время. В качестве благодарности мы отключим Вам всю рекламу на сайте (укажите свой ник в строку Ваше имя)!

×
  
Magnet ссылка

Metallica Cunning Stunts [1997г., Heavy metal, thrash metal, USA, DVD9] pb.wtf

Metallica Cunning Stunts через торрент pb.wtf

Размер: 11.93 GB | Добавлен: 7 лет 5 мес. назад | Торрент скачан:4 раза
Скачать  

17-08-2013 17:38 Metallica Cunning Stunts Скачать торрент  

Metallica Cunning Stunts Год выпуска: 1997
Страна: USA
Жанр: Heavy metal, thrash metal
Продолжительность: 03:02:10
1. "So What"
2. "Creeping Death"
3. "Sad But True"
4. "Ain't My Bitch"
5. "Hero Of The Day"
6. "King Nothing"
7. "One"
8. "Fuel"
9. "Bass/Guitar Doodle"
10. "Nothing Else Matters"
11. "Until It Sleeps"
12. "For Whom The Bell Tolls"
13. "Wherever I May Roam"
14. "Fade To Black"
15. "Kill/Ride Medley"
Bonus:
16. "Back Stage Pre-Show"
17. "Fans"
18. "Dan Braun and Production"
19. "JB & The Lights"
20. "New Stage"
Качество: DVD9
Формат: DVD
Видео кодек: MPEG2
Аудио кодек: Dolby AC3
Видео: 704x576, 25.000 fps, 7500.0 kbit/s
Аудио: 48.0 kHz, 2 chn, 256.0 kbit/s
Format : MPEG-PS
File size : 1 024 MiB
Duration : 4s 126ms
Overall bit rate mode : Variable
Overall bit rate : 2 082 Mbps

Video
ID : 224 (0xE0)
Format : MPEG Video
Format version : Version 2
Format profile : Main@Main
Format settings, BVOP : No
Format settings, Matrix : Default
Format settings, GOP : M=3, N=13
Duration : 4s 126ms
Bit rate mode : Variable
Bit rate : 2 039 Mbps
Maximum bit rate : 7 500 Kbps
Width : 704 pixels
Height : 576 pixels
Display aspect ratio : 4:3
Frame rate : 25.000 fps
Standard : PAL
Color space : YUV
Chroma subsampling : 4:2:0
Bit depth : 8 bits
Scan type : Interlaced
Scan order : Top Field First
Compression mode : Lossy
Bits/(Pixel*Frame) : 201.173
Time code of first frame : 10:00:00:00
Time code source : Group of pictures header
Stream size : 1 002 MiB (98%)
Color primaries : BT.601 PAL
Transfer characteristics : BT.470 System B, BT.470 System G
Matrix coefficients : BT.601

Audio #1
ID : 189 (0xBD)-128 (0x80)
Format : AC-3
Format/Info : Audio Coding 3
Mode extension : CM (complete main)
Format settings, Endianness : Big
Muxing mode : DVD-Video
Duration : 4s 6ms
Bit rate mode : Constant
Bit rate : 256 Kbps
Channel(s) : 2 channels
Channel positions : Front: L R
Sampling rate : 48.0 KHz
Bit depth : 16 bits
Compression mode : Lossy
Stream size : 125 KiB (0%)

Audio #2
ID : 189 (0xBD)-129 (0x81)
Format : AC-3
Format/Info : Audio Coding 3
Mode extension : CM (complete main)
Format settings, Endianness : Big
Muxing mode : DVD-Video
Duration : 3s 974ms
Bit rate mode : Constant
Bit rate : 448 Kbps
Channel(s) : 6 channels
Channel positions : Front: L C R, Side: L R, LFE
Sampling rate : 48.0 KHz
Bit depth : 16 bits
Compression mode : Lossy
Stream size : 217 KiB (0%)

Menu
pb.wtf



Скачать Metallica Cunning Stunts через торрент https://pic.kartinco.top/images/3/vfgqcwta54.png Скачать фильм Metallica Cunning Stunts [1997г., Heavy metal, thrash metal, USA, DVD9]через торрент бесплантно в хорошем качестве Год выпуска: 1997Страна: USAЖанр: Heavy metal, thrash metalПродолжительность: 03:02:1 "So What" "Creeping Death" "Sad But True" ... 10 10 4
Info! Золотая раздача, скачанное не засчитывается.
Торрент: Зарегистрирован [2013-08-17 17:38] · скачан: 4 раз
Статус: √ проверено
Размер: 11.93 GB
Как cкачать? Как скачать Metallica Cunning Stunts через торрент | UTorrent

28-11-2019 20:33  

Отключить всю рекламу на сайте

17-08-2013 21:22 Metallica Cunning Stunts Скачать торрент  

:good:pb.wtf



18-08-2013 02:36 Metallica Cunning Stunts Скачать торрент  

9+Лучший концерт после Live Shit 1989 годаpb.wtf



    Дорогой пользователь! Огромная просьба, поблагодарите релизера, оцените раздачу и оставьте свои комментарий, если Вы скачали Metallica Cunning Stunts через торрент бесплатно! Внесите свою лепту в развитие PiratBit!
    Комментировать посты могут только пользователи прошедшие не сложную регистрацию
    Показать сообщения:    

    Metallica Cunning Stunts через торрент
    Скачать бесплатно Metallica Cunning Stunts
    Metallica Cunning Stunts скачать торрент
    Metallica Cunning Stunts смотреть онлайн
    Cкачать фильм Metallica Cunning Stunts бесплатно
    Metallica Cunning Stunts скачать торрент в хорошем качестве
    Metallica Cunning Stunts смотреть онлайн бесплатно в хорошем качестве


    Вы не можете начинать темы
    Вы не можете отвечать на сообщения
    Вы не можете редактировать свои сообщения
    Вы не можете удалять свои сообщения
    Вы не можете голосовать в опросах
    Вы не можете прикреплять файлы к сообщениям
    Вы можете скачивать файлы