Ссылка на приватное зеркало нашего сайта всего за 1$. Внимание количество ограничено!!!

2 сезон

iTunes

1 сезон

1

iTunes

iTunes

iTunes

1 сезон

RePack

30

ИГРА 18+

pack

ВАЖНО

!!Акция!!

Alien_RageХит недели

RePack

MK11
pack

Забери бонус

RePack

jed

!!Акция!!

Alien_Rage

RePack

fifa19

RePack

Assassins Creed: Odyssey

RePack

NEED FOR SPEED™ PAYBACK

4 сезон

9 сезон

Бесстыжие 9 сезон

Все сериалы

все сериалы на PB.wtf

RePack

FAR CRY 5
  

Сумасшедшая езда / Drive Angry (Патрик Люссье / Patrick Lussier) [2010 , США , фэнтези, боевик, триллер , BDRip , DUB] pb.wtf

Сумасшедшая езда через торрент pb.wtf

Размер: 1.45 GB | Добавлен: 7 лет 2 мес. назад | Торрент скачан:266 раз
Скачать  

18-08-2013 09:37 Сумасшедшая езда Скачать торрент  

Сумасшедшая езда / Drive Angry

Слоган: «К черту из ада»
Год выпуска: 2010
Страна: США
Жанр: фэнтези, боевик, триллер, криминал
Продолжительность: 01:44:31
Перевод: Дублированный
Режиссер: Патрик Люссье / Patrick Lussier
В ролях: Николас Кейдж (Milton), Эмбер Хёрд (Piper), Уильям Фихтнер (The Accountant), Билли Бёрк (Jonah King), Дэвид Морс (Webster), Тодд Фармер (Frank Raimi), Криста Кэмпбелл (Mona), Шарлотта Росс (Candy), Том Аткинс (Cap), Джек МакГи (Fat Lou), Кэти Миксон (Norma Jean), Ванета Уолмсли (American Indian Mother)
Описание: В центре событий герой, идущий по следу негодяев, убивших его дочь. Главный герой «слетает с катушек», прыгает за руль своего автомобиля и начинает мстить, оставляя по обочинам дороги трупы похитителей.
Рейтинг
kinopoisk.ru: 5.645 (18 581)
imdb.com: 5.50 (61 231)
MPAA: R - Лицам до 17 лет обязательно присутствие взрослого
Бюджет: $50 000 000
Сборы в США: $10 721 033
Сборы в России: $5 767 965
Сборы в мире: $28 931 401
Мировая премьера: 24 февраля 2011
Релиз на DVD: 23 июня 2011, «CP-Digital»
Релиз на Blu-ray: 23 июня 2011, «CP-Digital»

  • Качество: BDRip
  • Формат: AVI
  • Видео кодек: XviD
  • Аудио кодек: AC3
  • Видео: XviD, 720x400 (16:9), 1205 kbps, 23,976 fps, 0,175 bpp
  • Аудио №1: AC3 / 5.1 / 48 kHz / 384 kbps / 16 bit Russian |Дубляж, R5|
  • Аудио №2: AC3 / 5.1 / 48 kHz / 384 kbps / 16 bit Ukrainian |Дубляж, R5|
    • На пуле адского дробовика написано «Deus velox nex», что в переводе с Латыни означает «Бог быстрой смерти».
    • В номерном знаке Dodge Charger«a зашифровано название фильма »DRVAGRY» (DRiVe AnGRY).
    Format : AVI
    Format/Info : Audio Video Interleave
    Format profile : OpenDML
    File size : 1.45 GiB
    Duration : 1h 44mn
    Overall bit rate : 1 993 Kbps
    Writing application : XviD4PSP 6.0 / 54.29.105

    Video
    ID : 0
    Format : MPEG-4 Visual
    Format profile : Advanced Simple@L5
    Format settings, BVOP : 3
    Format settings, QPel : No
    Format settings, GMC : 3 warppoints
    Format settings, Matrix : Default (H.263)
    Codec ID : XVID
    Codec ID/Hint : XviD
    Duration : 1h 44mn
    Bit rate : 1 206 Kbps
    Width : 720 pixels
    Height : 400 pixels
    Display aspect ratio : 16:9
    Frame rate : 23.976 fps
    Color space : YUV
    Chroma subsampling : 4:2:0
    Bit depth : 8 bits
    Scan type : Progressive
    Compression mode : Lossy
    Bits/(Pixel*Frame) : 0.175
    Stream size : 901 MiB (61%)
    Writing library : XviD 64

    Audio #1
    ID : 1
    Format : AC-3
    Format/Info : Audio Coding 3
    Mode extension : CM (complete main)
    Codec ID : 2000
    Duration : 1h 44mn
    Bit rate mode : Constant
    Bit rate : 384 Kbps
    Channel(s) : 6 channels
    Channel positions : Front: L C R, Side: L R, LFE
    Sampling rate : 48.0 KHz
    Bit depth : 16 bits
    Compression mode : Lossy
    Stream size : 287 MiB (19%)
    Alignment : Aligned on interleaves
    Interleave, duration : 32 ms (0.77 video frame)
    Title : AC3 5.1 @ 384 kbps - Дубляж, R5

    Audio #2
    ID : 2
    Format : AC-3
    Format/Info : Audio Coding 3
    Mode extension : CM (complete main)
    Codec ID : 2000
    Duration : 1h 44mn
    Bit rate mode : Constant
    Bit rate : 384 Kbps
    Channel(s) : 6 channels
    Channel positions : Front: L C R, Side: L R, LFE
    Sampling rate : 48.0 KHz
    Bit depth : 16 bits
    Compression mode : Lossy
    Stream size : 287 MiB (19%)
    Alignment : Aligned on interleaves
    Interleave, duration : 32 ms (0.77 video frame)
    Title : AC3 5.1 @ 384 kbps - Дубляж, R5
    Трейлер pb.wtf



  • Скачать Сумасшедшая езда через торрент http://i6.imageban.ru/out/2013/08/18/35ebf7bf5286489bfb7e800237aaf626.png Скачать фильм Сумасшедшая езда через торрент бесплантно в хорошем качестве Описание: В центре событий герой, идущий по следу негодяев, убивших его дочь. Главный герой «слетает с катушек», прыгает за руль своего ... 9.5 10 18
    Info! Золотая раздача, скачанное не засчитывается.
    Торрент: Зарегистрирован [2013-08-18 09:37] · скачан: 266 раз
    Статус: √ проверено
    Размер: 1.45 GB
    Как cкачать? Как скачать Сумасшедшая езда через торрент | qTorrent

    % Раздел Тема Автор DL S | L
    Фильмы 2011 [ 2.18 GB ] Сумасшедшая езда / Drive Angry [2011 BDRip] DUB bober100 Скачать
    1 | 0
    Фильмы (HD 720p, 1080p) (48-60 fps) [ 6.13 GB ] Сумасшедшая езда / Drive Angry [2010 BDRip 720p ] 60fps от mimok mimok Скачать
    1 | 0
    Фильмы [HD 720p, 1080p] (Хороший звук DUB, MVO) [ 7.57 GB ] Сумасшедшая езда / Drive Angry [2010 BDRip 720p лицензия] Ke$h@ Скачать
    1 | 0
    3D Фильмы [ 7.61 GB ] Сумасшедшая езда в 3D / Drive Angry 3D [2011 BDrip-AVC] Anaglyph DUBois/ Анаглиф Дюбуа L_E_X Скачать
    1 | 0
    Фильмы 2011 [ 702 MB ] Сумасшедшая езда / Drive Angry [2011 HDRip лицензия] 700 mb SD Скачать
    1 | 0
    3D Фильмы [ 1.57 GB ] Сумасшедшая езда 3Д / Drive Angry 3D [2011 HDrip] Anaglyph / Анаглиф slaventi-69 Скачать
    1 | 0
    Фильмы 2011 [ 1.37 GB ] Сумасшедшая езда / Drive Angry [2011 HDRip] coc900 Скачать
    1 | 0

    28-11-2019 20:33  

    Отключить всю рекламу на сайте

    18-08-2013 14:35 Сумасшедшая езда Скачать торрент  

    Скачала думала посмотрю - начало стало останавливаться может только у меня? pb.wtf



    18-08-2013 17:18 Сумасшедшая езда Скачать торрент  

    lulu999 писал(а):

    Скачала думала посмотрю - начало стало останавливаться может только у меня?

    давай адрес,щас приеду,посмотрю))pb.wtf



      Дорогой пользователь! Огромная просьба, поблагодарите релизера, оцените раздачу и оставьте свои комментарий, если Вы скачали Сумасшедшая езда через торрент бесплатно! Внесите свою лепту в развитие PiratBit!
      Комментировать посты могут только пользователи прошедшие не сложную регистрацию
      Показать сообщения:    

      Сумасшедшая езда через торрент
      Скачать бесплатно Сумасшедшая езда
      Сумасшедшая езда скачать торрент
      Сумасшедшая езда смотреть онлайн
      Cкачать фильм Сумасшедшая езда бесплатно
      Сумасшедшая езда скачать торрент в хорошем качестве
      Сумасшедшая езда смотреть онлайн бесплатно в хорошем качестве


      Вы не можете начинать темы
      Вы не можете отвечать на сообщения
      Вы не можете редактировать свои сообщения
      Вы не можете удалять свои сообщения
      Вы не можете голосовать в опросах
      Вы не можете прикреплять файлы к сообщениям
      Вы можете скачивать файлы