новый адрес
Ссылка на приватное зеркало всего за 1$. Внимание количество ограничено!!!

iTunes

1+1

iTunes

мы

WEB-DL

1

iTunes

Чернобыль

iTunes

Ральф против интернета

Лицензия

ПШазам

Лицензия

Оно 2

Лицензия

30
pack

Вам бонус

ВАЖНО

!!Акция!!

Alien_RageХит недели

RePack

Resident Evil 21

ИГРА 18+

pack

RePack

jed

!!Акция!!

Alien_Rage

RePack

fifa19

RePack

Assassins Creed: Odyssey

RePack

NEED FOR SPEED™ PAYBACK

3 сезон

9 сезон

Бесстыжие 9 сезон

Все сериалы

все сериалы на PB.wtf

RePack

FAR CRY 5
Ребята, катастрофически не хватает 1900р. для оплаты серверов за Октябрь (всвязи с блокировками трафик упал в 3 раза), 1-2р., выручайте.
  

И всё Лоранс / Laurence Anyways (Ксавье Долан / Xavier Dolan) [2012 , Канада, Франция , драма, мелодрама , HDRip , MVO] pb.wtf

И всё Лоранс через торрент pb.wtf

Размер: 1.46 GB | Добавлен: 6 лет 3 мес. назад | Торрент скачан:79 раз
Скачать  

19-08-2013 13:55 И всё Лоранс Скачать торрент  

И всё же Лоранс / Laurence Anyways

Год выпуска: 2012
Страна: Канада, Франция
Жанр: драма, мелодрама
Продолжительность: 02:48:02
Перевод: Профессиональный (многоголосый, закадровый) [НТВ+]

Режиссер: Ксавье Долан / Xavier Dolan
В ролях: Мельвиль Пупо (Laurence Alia), Сюзанн Клеман (Fred Belair), Натали Бэй (Julienne Alia), Монья Шокри (Stéfanie Belair), Сьюзэн Алмгрен (La journaliste), Ив Жак (Michel Lafortune), Софи Фочер (Andrée Belair), Мэгали Лепин Блондо (Charlotte), Катрин Беджин (Mamy Rose), Эммануэль Шварц (Baby Rose), Жак Лавалли (Dada Rose), Перретт Супле (Tatie Rose)
Описание: Лоранс - 35-летний преподаватель колледжа. Он работает над своей первой поэтической книгой, получает награды за талант и счастлив в любви со своей подругой Фред. Эта пара очень близка, между ними царит гармония и взаимопонимание, и оттого как гром среди ясного неба звучат слова Лоранса о том, что он решил сменить пол.
По его словам, уже долгие годы он живет с мыслью о том, что просто не может быть мужчиной, что чувствует себя женщиной. Преодолевая предубеждения окружающих и сопротивление своей семьи, герои картины пытаются выстоять в противостоянии с обществом.
Рейтинг
kinopoisk.ru: 7.806 (1230)
imdb.com: 7.10 (2963)
Мировая премьера: 18 мая 2012

  • Качество: HDRip
  • Формат: AVI
  • Видео кодек: XviD
  • Аудио кодек: AC3
  • Видео: XviD, 720x512 (1.406), 1046 kbps, 23,976 fps, 0,118 bpp
  • Аудио: AC3 / 2.0 / 48 kHz / 192 kbps / 16 bit
    • Луи Гаррель должен был сыграть главную роль, но выбыл до начала съемок. Его заменил Мельвиль Пупо.
    Format : AVI
    Format/Info : Audio Video Interleave
    File size : 1.46 GiB
    Duration : 2h 48mn
    Overall bit rate : 1 248 Kbps
    Writing application : VirtualDubMod 1.5.10.2 (build 2540/release)
    Writing library : VirtualDubMod build 2540/release

    Video
    ID : 0
    Format : MPEG-4 Visual
    Format profile : Advanced Simple@L5
    Format settings, BVOP : 2
    Format settings, QPel : No
    Format settings, GMC : No warppoints
    Format settings, Matrix : Default (MPEG)
    Codec ID : XVID
    Codec ID/Hint : XviD
    Duration : 2h 48mn
    Bit rate : 1 046 Kbps
    Width : 720 pixels
    Height : 512 pixels
    Display aspect ratio : 1.406
    Frame rate : 23.976 fps
    Color space : YUV
    Chroma subsampling : 4:2:0
    Bit depth : 8 bits
    Scan type : Progressive
    Compression mode : Lossy
    Bits/(Pixel*Frame) : 0.118
    Stream size : 1.23 GiB (84%)
    Writing library : XviD 1.2.1 (UTC 2008-12-04)

    Audio
    ID : 1
    Format : AC-3
    Format/Info : Audio Coding 3
    Mode extension : CM (complete main)
    Codec ID : 2000
    Duration : 2h 47mn
    Bit rate mode : Constant
    Bit rate : 192 Kbps
    Channel(s) : 2 channels
    Channel positions : Front: L R
    Sampling rate : 48.0 KHz
    Bit depth : 16 bits
    Compression mode : Lossy
    Stream size : 230 MiB (15%)
    Alignment : Split accross interleaves
    Interleave, duration : 42 ms (1.00 video frame)
    Interleave, preload duration : 500 ms
    Трейлер pb.wtf



  • Скачать И всё Лоранс через торрент http://i2.imageban.ru/out/2013/08/19/1e7937d5984e6cd6724370153c751cd5.png Скачать фильм И всё Лоранс через торрент бесплантно в хорошем качестве Описание: Лоранс - 35-летний преподаватель колледжа. Он работает над своей первой поэтической книгой, получает награды за талант и счастлив ... 9.4 10 10
    Info! Золотая раздача, скачанное не засчитывается.
    Торрент: Зарегистрирован [2013-08-19 13:55] · скачан: 79 раз
    Статус: √ проверено
    Размер: 1.46 GB
    Как cкачать? Как скачать И всё Лоранс через торрент | qTorrent

    28-11-2019 20:33  

    Отключить всю рекламу на сайте

      Дорогой пользователь! Огромная просьба, поблагодарите релизера, оцените раздачу и оставьте свои комментарий, если Вы скачали И всё Лоранс через торрент бесплатно! Внесите свою лепту в развитие PiratBit!
      Комментировать посты могут только пользователи прошедшие не сложную регистрацию
      Показать сообщения:    

      И всё Лоранс через торрент
      Скачать бесплатно И всё Лоранс
      И всё Лоранс скачать торрент
      И всё Лоранс смотреть онлайн
      Cкачать фильм И всё Лоранс бесплатно
      И всё Лоранс скачать торрент в хорошем качестве
      И всё Лоранс смотреть онлайн бесплатно в хорошем качестве


      Вы не можете начинать темы
      Вы не можете отвечать на сообщения
      Вы не можете редактировать свои сообщения
      Вы не можете удалять свои сообщения
      Вы не можете голосовать в опросах
      Вы не можете прикреплять файлы к сообщениям
      Вы можете скачивать файлы