Мега распродажа FORZA HORIZON 4 ULTIMATE+ВСЕ DLC+ОНЛАЙН всего за 499р. 349 руб. (супер цена). Внимание количество ограничено!!!

iTunes

1+1

iTunes

мы

iTunes

1

1 сезон

Чернобыль

1 сезон

Ральф против интернета

Лицензия

ПШазам

8 сезон

Игра престолов

Лицензия

30
pack

ВАЖНО

!!Акция!!

Alien_RageХит недели

RePack

Resident Evil 21

ИГРА 18+

pack

RePack

Metro:Exodus

!!Акция!!

Alien_Rage

RePack

fifa19

RePack

Assassins Creed: Odyssey

RePack

NEED FOR SPEED™ PAYBACK

3 сезон

9 сезон

Бесстыжие 9 сезон

Все сериалы

все сериалы на PB.wtf

RePack

FAR CRY 5
Ребята, катастрофически не хватает 2730р. для оплаты серверов за ИЮНЬ (всвязи с блокировками трафик упал в 3 раза), 1-2р., выручайте.
  

Леди-ястреб / Ladyhawke (Ричард Доннер) [1985 г., фэнтези, драма, мелодрама, приключения, HDTV, Профессиональный двухголосый] pb.wtf

Леди-ястреб через торрент pb.wtf

Размер: 1.54 GB | Добавлен: 5 лет 10 мес. назад | Торрент скачан:92 раза
Скачать  

19-08-2013 17:49 Леди-ястреб Скачать торрент  

Леди-ястреб / Ladyhawke
Год выпуска: 1985
Страна: США
Жанр: фэнтези, драма, мелодрама, приключения,
Продолжительность: 02:01:00
Перевод: Профессиональный двухголосый

Режиссер: Ричард Доннер
Продюссер: Харви Бернхард, Ричард Доннер, Лоурен Шулер Доннер
Сценарий: Эдвард Хмара, Майкл Томас, Том Манкевич

Премьера в мире: 27 марта 1985

В ролях: Мэттью Бродерик, Рутгер Хауэр, Мишель Пфайффер, Лео МакКерн, Джон Вуд, Кен Хатчинсон, Альфред Молина, Джанкарло Прете, Лорис Лодди, Алессандро Серра,

Описание: Фильм основан на средневековой европейской легенде о доблестном рыцаре и ослепительной красавице. Епископ, злой колдун накладывает на них проклятье: по ночам рыцарь превращается в волка, а девушка — в ястреба днем. Слуги Епископа преследуют их уже два года, но удача пока улыбается нашим героям. С помощью маленького воришки Филиппа они надеются вернуться в город, где под неусыпной охраной живет их враг. Им нужно уничтожить злобного колдуна и снять с себя черное проклятье.
Доп. информация: Номинация на Оскар (1986 год в кино) за лучший звук и за лучший монтаж звуковых эффектов.

Качество: HDTV
Формат: MPEG
Видео кодек: MPEG4
Аудио кодек: AC3
Видео: 1280X720, 1800kbps, 25fps
Аудио#1: 128kbps; 2ch; 44,1kHz
Релиз от: n1alex



Формат : MPEG-4
Профиль формата : Base Media
Идентификатор кодека : isom
Размер файла : 1,54 Гбайт
Продолжительность : 2 ч. 1 м.
Режим общего битрейта : Переменный
Общий поток : 1819 Кбит/сек
Программа кодирования : Lavf52.40.0

Видео
Идентификатор : 1
Формат : AVC
Формат/Информация : Advanced Video Codec
Профиль формата : High@L3.1
Параметр CABAC формата : Да
Параметр ReFrames формата : 3 кадра
Идентификатор кодека : avc1
Идентификатор кодека/Информация : Advanced Video Coding
Продолжительность : 2 ч. 1 м.
Битрейт : 1686 Кбит/сек
Номинальный битрейт : 1800 Кбит/сек
Ширина : 1280 пикселей
Высота : 720 пикселей
Соотношение сторон : 16:9
Режим частоты кадров : Переменный
Частота кадров : 23,976 кадра/сек
Частота кадров в оригинале : 25,000 кадров/сек
Минимальная частота кадров : 12,500 кадров/сек
Максимальная частота кадров : 25,000 кадров/сек
Цветовое пространство : YUV
Субдискретизация насыщенности : 4:2:0
Битовая глубина : 8 бит
Тип развёртки : Прогрессивная
Бит/(Пиксели*Кадры) : 0.076
Размер потока : 1,43 Гбайт (93%)
Библиотека кодирования : x264 core 79
Настройки программы : cabac=1 / ref=3 / deblock=1:0:0 / analyse=0x3:0x113 / me=hex / subme=7 / psy=1 / psy_rd=1.0:0.0 / mixed_ref=1 / me_range=16 / chroma_me=1 / trellis=1 / 8x8dct=1 / cqm=0 / deadzone=21,11 / chroma_qp_offset=-2 / threads=24 / nr=0 / decimate=1 / mbaff=0 / constrained_intra=0 / bframes=3 / b_pyramid=0 / b_adapt=1 / b_bias=0 / direct=1 / wpredb=32 / wpredp=2 / keyint=250 / keyint_min=25 / scenecut=40 / rc_lookahead=40 / rc=abr / mbtree=1 / bitrate=1800 / ratetol=2.2 / qcomp=0.60 / qpmin=10 / qpmax=51 / qpstep=4 / ip_ratio=1.41 / aq=1:1.00

Аудио
Идентификатор : 2
Формат : AAC
Формат/Информация : Advanced Audio Codec
Профиль формата : LC
Идентификатор кодека : 40
Продолжительность : 2 ч. 1 м.
Вид битрейта : Переменный
Битрейт : 128 Кбит/сек
Каналы : 2 канала
Расположение каналов : Front: L R
Частота : 44,1 КГц
Метод сжатия : С потерями
Задержка видео : 40 мс.
Размер потока : 111 Мбайт (7%)

pb.wtf



Скачать Леди-ястреб через торрент http://pic.kartinco.top/images/3/mtbt1bmzfo.jpg Скачать фильм Леди-ястреб через торрент бесплантно в хорошем качестве Описание: Фильм основан на средневековой европейской легенде о доблестном рыцаре и ослепительной красавице. Епископ, злой колдун ... 9.1 10 10
Info! Золотая раздача, скачанное не засчитывается.
Торрент: Зарегистрирован [2013-08-19 17:49] · скачан: 92 раз
Статус: √ проверено
Размер: 1.54 GB
Как cкачать? Как скачать Леди-ястреб через торрент | qTorrent

% Раздел Тема Автор DL S | L
Фильмы [HD 720p, 1080p] (Хороший звук DUB, MVO) [ 5.44 GB ] Леди-ястреб / Ladyhawke [1985 BDRip 720p by msltel] MVO 3 x DVO AVO VO msltel Скачать
1 | 0
Фильмы [HD 720p, 1080p] (Хороший звук DUB, MVO) [ 14.19 GB ] Леди-ястреб / Ladyhawke [1985 BDRip 1080p by msltel] MVO 3 x DVO AVO VO msltel Скачать
1 | 0
Фильмы [HD 720p, 1080p] (Хороший звук DUB, MVO) [ 14.32 GB ] Леди-ястреб / Ladyhawke [1985 BDRip 1080p by msltel] MVO 2 x DVO AVO VO msltel Скачать
1 | 0
Фильмы [HD 720p, 1080p] (Хороший звук DUB, MVO) [ 5.13 GB ] Леди-ястреб / Ladyhawke [1985 BDRip 720p by msltel] MVO 2 x DVO AVO VO msltel Скачать
1 | 0


>> Регистрируемся здесь <<






Отзывы и комментарии о схеме читаем и пишем здесь: ---> Отзывы и комментарии о схеме

Новые благодарочки в телеграм довольных пользователей:
скриншот   скриншот   скриншот   скриншот   скриншот

19-08-2013 18:04 Леди-ястреб Скачать торрент  

Замечательный фильм. Классика.pb.wtf



19-08-2013 18:06 Леди-ястреб Скачать торрент  

Подскажите, как сделать раздачу золотой!pb.wtf



19-08-2013 18:53 Леди-ястреб Скачать торрент  

отличное доброе киноpb.wtf



19-08-2013 19:55 Леди-ястреб Скачать торрент  

фильм супер но озвучка не таpb.wtf



19-08-2013 21:16 Леди-ястреб Скачать торрент  

Один из любимых фильмов детства :good2:pb.wtf



    Дорогой пользователь! Огромная просьба, поблагодарите релизера, оцените раздачу и оставьте свои комментарий, если Вы скачали Леди-ястреб через торрент бесплатно! Внесите свою лепту в развитие PiratBit!
    Комментировать посты могут только пользователи прошедшие не сложную регистрацию
    Показать сообщения:    

    Леди-ястреб через торрент
    Скачать бесплатно Леди-ястреб
    Леди-ястреб скачать торрент
    Леди-ястреб смотреть онлайн
    Cкачать фильм Леди-ястреб бесплатно
    Леди-ястреб скачать торрент в хорошем качестве
    Леди-ястреб смотреть онлайн бесплатно в хорошем качестве


    Вы не можете начинать темы
    Вы не можете отвечать на сообщения
    Вы не можете редактировать свои сообщения
    Вы не можете удалять свои сообщения
    Вы не можете голосовать в опросах
    Вы не можете прикреплять файлы к сообщениям
    Вы можете скачивать файлы