Ссылка на приватное зеркало нашего сайта всего за 1$. Внимание количество ограничено!!!

2 сезон

iTunes

1 сезон

1

iTunes

iTunes

iTunes

1 сезон

RePack

30

ИГРА 18+

pack

ВАЖНО

!!Акция!!

Alien_RageХит недели

RePack

MK11
pack

Забери бонус

RePack

jed

!!Акция!!

Alien_Rage

RePack

fifa19

RePack

Assassins Creed: Odyssey

RePack

NEED FOR SPEED™ PAYBACK

4 сезон

9 сезон

Бесстыжие 9 сезон

Все сериалы

все сериалы на PB.wtf

RePack

FAR CRY 5
  

Доберман / Dobermann (Жан Коунен / Jan Kounen) [1997 г., криминал, боевик, триллер, BDRip 1080p,AVO+MVO +Original Fr+ SUB Rus,Eng ] pb.wtf

Доберман через торрент pb.wtf

Качают: 1 [ 0 KB/s ]
Размер: 10.16 GB | Добавлен: 7 лет 2 мес. назад | Торрент скачан:73 раза
Скачать  

20-08-2013 15:22 Доберман Скачать торрент  

Доберман / Dobermann
Год выпуска: 1997
Страна: Франция
Жанр: криминал, боевик, триллер,
Продолжительность: 01:43:06
Перевод: Профессиональный одноголосый+Многоголосый закадровый
Субтитры: Russian, English

Режиссер: Жан Коунен / Jan Kounen

Бюджет: FRF 33 000 000



В ролях: Венсан Кассель, Чеки Карио, Моника Беллуччи, Антуан Баслер, Доминик Беттенфельд, Паскаль Демолон, Марк Дюре, Ромен Дюри, Франсуа Леванталь, Иван Мерат-Барбофф,

: Герою фильма уже в день крестин один из друзей отца дарит Магнум-357. Мальчик вырос и стал супернаглым и дерзким грабителем по кличке Доберман. 357-й магнум заменили самые современные виды огнестрельного оружия, включая даже небольшие ракеты, которыми можно стрелять, навинчивая их на ствол пистолета.
Вместе с ним всегда его глухая подруга, спокойно красящая ногти во время ограбления инкассаторов. Все члены банды — еще те типажи! Ловит же его жестокий полицейский рядом с которым Грязный Гарри — просто бойскаут. Он одержимо хочет поймать или убить Добермана и для достижения своей цели готов пойти на все и даже преступить закон.


Доп. информация: Фильм включен в список запрещенных к распространению в Республике Беларусь.
Снайперская винтовка, из которой Маню застрелил полицейского во время ограбления банка — Walther WA 2000. Это достаточно редкое оружие, поскольку с 1982 по 1988 гг. было произведено всего 176 винтовок. Винтовка является автоматической, однако Маню пользуется затвором после каждого выстрела.

Качество: BDRip 1080p
Формат: MKV
Видео кодек: AVC
Аудио кодек: DTS
Видео: 1920x816 24.000 fps, x.264 L4.1, 11.0 Mbps~14.1 Mbps avg
Аудио#1: Russian: 48 kHz, DTS, 3/2 (L,C,R,l,r) + LFE ch, ~768.00 kbps avg |Одноголосый закадровый - Ю.Сербин|
Аудио#2: Russian: 48 kHz, DTS, 3/2 (L,C,R,l,r) + LFE ch, ~768.00 kbps avg |Многоголосый закадровый|
Аудио#3: French: 48 kHz, DTS, 3/2 (L,C,R,l,r) + LFE ch, ~1536.00 kbps avg




E:киноДоберманDoberman.1997.1080p.Rus.Fr.mkv
General
Unique ID : 231781603164760913793440282807769637411 (0xAE5F835493FDB5E8AB8518435B362223)
Complete name : E:киноДоберманDoberman.1997.1080p.Rus.Fr.mkv
Format : Matroska
Format version : Version 2
File size : 10.2 GiB
Duration : 1h 43mn
Overall bit rate : 14.1 Mbps
Movie name : Doberman (1997)
Encoded date : UTC 2009-06-26 04:23:09
Writing application : mkvmerge v2.9.0 ('Moanin'') built on May 22 2009 17:46:31
Writing library : libebml v0.7.7 + libmatroska v0.8.1
Video #5
ID : 5
Format : AVC
Format/Info : Advanced Video Codec
Format profile : High@L4.1
Format settings, CABAC : Yes
Format settings, ReFrames : 4 frames
Codec ID : V_MPEG4/ISO/AVC
Duration : 1h 43mn
Bit rate : 11.1 Mbps
Width : 1 920 pixels
Height : 816 pixels
Display aspect ratio : 2.35:1
Frame rate mode : Constant
Frame rate : 24.000 fps
Color space : YUV
Chroma subsampling : 4:2:0
Bit depth : 8 bits
Scan type : Progressive
Bits/(Pixel*Frame) : 0.295
Stream size : 7.79 GiB (77%)
Writing library : x264 core 67 r1171M 2c7cb4c
Encoding settings : cabac=1 / ref=4 / deblock=1:-1:-2 / analyse=0x3:0x113 / me=umh / subme=9 / psy_rd=1.0:0.0 / mixed_ref=1 / me_range=24 / chroma_me=1 / trellis=2 / 8x8dct=1 / cqm=0 / deadzone=21,11 / chroma_qp_offset=-2 / threads=12 / nr=0 / decimate=0 / mbaff=0 / bframes=3 / b_pyramid=0 / b_adapt=2 / b_bias=0 / direct=3 / wpredb=1 / keyint=250 / keyint_min=25 / scenecut=40 / rc=2pass / bitrate=11087 / ratetol=1.0 / qcomp=0.60 / qpmin=10 / qpmax=51 / qpstep=4 / cplxblur=20.0 / qblur=0.5 / vbv_maxrate=50000 / vbv_bufsize=50000 / ip_ratio=1.40 / pb_ratio=1.30 / aq=1:0.80
Language : English
Default : Yes
Forced : No
Audio #2
ID : 2
Format : DTS
Format/Info : Digital Theater Systems
Mode : 16
Format settings, Endianness : Big
Codec ID : A_DTS
Duration : 1h 43mn
Bit rate mode : Constant
Bit rate : 755 Kbps
Channel(s) : 6 channels
Channel positions : Front: L C R, Side: L R, LFE
Sampling rate : 48.0 KHz
Bit depth : 24 bits
Compression mode : Lossy
Stream size : 556 MiB (5%)
Title : DTS 5.1 @ 768 kbps - Многоголосый закадровый
Language : Russian
Default : No
Forced : No
Audio #3
ID : 3
Format : DTS
Format/Info : Digital Theater Systems
Mode : 16
Format settings, Endianness : Big
Codec ID : A_DTS
Duration : 1h 43mn
Bit rate mode : Constant
Bit rate : 1 509 Kbps
Channel(s) : 6 channels
Channel positions : Front: L C R, Side: L R, LFE
Sampling rate : 48.0 KHz
Bit depth : 16 bits
Compression mode : Lossy
Stream size : 1.09 GiB (11%)
Title : DTS 5.1 @ 1536 kbps
Language : French
Default : No
Forced : No
Audio #1
ID : 1
Format : DTS
Format/Info : Digital Theater Systems
Mode : 16
Format settings, Endianness : Big
Codec ID : A_DTS
Duration : 1h 43mn
Bit rate mode : Constant
Bit rate : 755 Kbps
Channel(s) : 6 channels
Channel positions : Front: L C R, Side: L R, LFE
Sampling rate : 48.0 KHz
Bit depth : 24 bits
Compression mode : Lossy
Stream size : 556 MiB (5%)
Title : DTS 5.1 @ 768 kbps - Одноголосый закадровый, Ю.Сербин
Language : Russian
Default : Yes
Forced : No
Text #4
ID : 4
Format : UTF-8
Codec ID : S_TEXT/UTF8
Codec ID/Info : UTF-8 Plain Text
Language : Russian
Default : Yes
Forced : No
Text #6
ID : 6
Format : UTF-8
Codec ID : S_TEXT/UTF8
Codec ID/Info : UTF-8 Plain Text
Language : English
Default : No
Forced : No


Доберман скачать торрент


pb.wtf



Скачать Доберман через торрент http://pic.kartinco.top/images/3/tcog2hnct6.jpg Скачать фильм Доберман через торрент бесплантно в хорошем качестве В ролях: Венсан Кассель, Чеки Карио, Моника Беллуччи, Антуан Баслер, Доминик Беттенфельд, Паскаль Демолон, Марк Дюре, Ромен Дюри, Франсуа ... 9.4 10 14
Info! Золотая раздача, скачанное не засчитывается.
Торрент: Зарегистрирован [2013-08-20 15:22] · скачан: 73 раз
Статус: √ проверено
Размер: 10.16 GB
Как cкачать? Как скачать Доберман через торрент | qTorrent

% Раздел Тема Автор DL S | L
Фильмы [HD 720p, 1080p] (Хороший звук DUB, MVO) [ 3.43 GB ] Доберман / Dobermann [1997 BDRip 720p / 60 FPS] AVO [Сербин] alien2015 Скачать
1 | 0
Фильмы [HD 720p, 1080p] (Хороший звук DUB, MVO) [ 3.61 GB ] Доберман / Dobermann [1997 BDRip 720p. многоголосый] Wollishofen Скачать
1 | 0
Фильмы до 2000 г. [ 1.78 GB ] Доберман / Dobermann [1997 HDRip] [VO] ) + [AVO] killermax2013 Скачать
1 | 0
Фильмы до 2000 г. [ 2.02 GB ] Доберман / Dobermann [1997 HDRip MVO + Оригинал] lev1244v Скачать
1 | 0
Фильмы до 2000 г. [ 747 MB ] Доберман / Dobermann [1997 HDRip] azagoth_666 Скачать
1 | 0
Фильмы до 2000 г. [ 1.46 GB ] Доберман / Dobermann [1997 BDRip] feldeger Скачать
1 | 0
Фильмы до 2000 г. [ 2.5 GB ] Доберман / Dobermann [1997 DVDRip] war22200 Скачать
1 | 0

28-11-2019 20:33  

Отключить всю рекламу на сайте

21-08-2013 10:59 Доберман Скачать торрент  

отличный фильм, отвечаю!!! pb.wtf



    Дорогой пользователь! Огромная просьба, поблагодарите релизера, оцените раздачу и оставьте свои комментарий, если Вы скачали Доберман через торрент бесплатно! Внесите свою лепту в развитие PiratBit!
    Комментировать посты могут только пользователи прошедшие не сложную регистрацию
    Показать сообщения:    

    Доберман через торрент
    Скачать бесплатно Доберман
    Доберман скачать торрент
    Доберман смотреть онлайн
    Cкачать фильм Доберман бесплатно
    Доберман скачать торрент в хорошем качестве
    Доберман смотреть онлайн бесплатно в хорошем качестве


    Вы не можете начинать темы
    Вы не можете отвечать на сообщения
    Вы не можете редактировать свои сообщения
    Вы не можете удалять свои сообщения
    Вы не можете голосовать в опросах
    Вы не можете прикреплять файлы к сообщениям
    Вы можете скачивать файлы