2 сезон

iTunes

1 сезон

1

iTunes

iTunes

iTunes

1 сезон

RePack

30

ИГРА 18+

pack

ВАЖНО

!!Акция!!

Alien_RageХит недели

RePack

MK11
pack

Забери бонус

RePack

jed

!!Акция!!

Alien_Rage

RePack

fifa19

RePack

Assassins Creed: Odyssey

RePack

NEED FOR SPEED™ PAYBACK

4 сезон

9 сезон

Бесстыжие 9 сезон

Все сериалы

все сериалы на PB.wtf

RePack

FAR CRY 5
  

Империя волков / Empire of the Wolves (Крис Наон / Chris Nahon) [2005 г., BDRip 1080p, Dub+Original Fr + Sub Rus] pb.wtf

Империя волков через торрент pb.wtf

Размер: 11.57 GB | Добавлен: 7 лет 2 мес. назад | Торрент скачан:51 раз
Скачать  

20-08-2013 16:30 Империя волков Скачать торрент  

Империя волков / Empire of the Wolves «If You Can't Remember Your Past...You Can't Save Your Future.»
Год выпуска: 2005
Страна: Франция
Жанр: криминал, детектив, драма, триллер
Перевод: Профессиональный многоголосый
Субтитры: Русские

Продолжительность: 02:08:19
Режиссер: Крис Наон / Chris Nahon


Бюджет: €24 000 000




В ролях: Жан Рено, Арли Ховер, Жослин Киврен, Лаура Моранте, Филипп Бас, Дэвид Камменос, Дидье Совегран, Патрик Флёрем, Этьен Шико, Альбер Дрэ,

: Молодой полицейский Поль расследует серию жестоких убийств в турецком квартале Парижа. Пытаясь понять, кто и зачем пытает и убивает очень похожих друг на друга женщин, он прибегает к помощи старого полицейского Шиффера с дурной репутацией. Вместе они пускаются по следу неуловимого убийцы…

Качество: BDRip 1080p
Формат: MKV
Видео кодек: AVC
Аудио кодек: DTS
Видео: 1920 x 820 (2.341) / 23.976 fps 10,7 Mbps ~12.9 Mbps
Аудио#1: Русский DTS / 5.1 / 768 Кбит/с / 48 КГц / 24 бит
Аудио#2: Французский DTS / 5.1 / 1536 Кбит/с / 48 КГц / 24 бит




E:киноИмперия волков L'empire des loupsImperija.volkov.2005.x264.BDRip.1080p..mkv
General
Unique ID : 205929901152966722877047301654449879377 (0x9AECA803C5077430932E8F817D99F951)
Complete name : E:киноИмперия волков L'empire des loupsImperija.volkov.2005.x264.BDRip.1080p..mkv
Format : Matroska
Format version : Version 2
File size : 11.6 GiB
Duration : 2h 8mn
Overall bit rate : 12.9 Mbps
Movie name : Imperija volkov (2005)
Encoded date : UTC 2010-09-01 10:00:22
Writing application : mkvmerge v3.4.0 ('Rapunzel') сборка от May 15 2010 09:38:20
Writing library : libebml v0.8.0 + libmatroska v0.9.0
Video #1
ID : 1
Format : AVC
Format/Info : Advanced Video Codec
Format profile : High@L4.1
Format settings, CABAC : Yes
Format settings, ReFrames : 4 frames
Codec ID : V_MPEG4/ISO/AVC
Duration : 2h 8mn
Bit rate : 10.7 Mbps
Width : 1 920 pixels
Height : 820 pixels
Display aspect ratio : 2.35:1
Frame rate mode : Constant
Frame rate : 23.976 fps
Color space : YUV
Chroma subsampling : 4:2:0
Bit depth : 8 bits
Scan type : Progressive
Bits/(Pixel*Frame) : 0.282
Stream size : 9.31 GiB (80%)
Title : Imperija volkov (2005)
Writing library : x264 core 104 r1698 c41b8f0
Encoding settings : cabac=1 / ref=4 / deblock=1:-3:-3 / analyse=0x3:0x113 / me=umh / subme=9 / psy=1 / psy_rd=1.05:0.10 / mixed_ref=1 / me_range=32 / chroma_me=1 / trellis=2 / 8x8dct=1 / cqm=0 / deadzone=21,11 / fast_pskip=0 / chroma_qp_offset=-2 / threads=12 / sliced_threads=0 / nr=0 / decimate=1 / interlaced=0 / constrained_intra=0 / bframes=5 / b_pyramid=2 / b_adapt=2 / b_bias=0 / direct=3 / weightb=1 / open_gop=0 / weightp=2 / keyint=250 / keyint_min=23 / scenecut=40 / intra_refresh=0 / rc_lookahead=60 / rc=2pass / mbtree=1 / bitrate=10651 / ratetol=2.0 / qcomp=0.70 / qpmin=10 / qpmax=51 / qpstep=4 / cplxblur=20.0 / qblur=0.5 / vbv_maxrate=50000 / vbv_bufsize=50000 / ip_ratio=1.40 / aq=1:1.00 / nal_hrd=none
Language : French
Default : Yes
Forced : No
Audio #2
ID : 2
Format : DTS
Format/Info : Digital Theater Systems
Mode : 16
Format settings, Endianness : Big
Codec ID : A_DTS
Duration : 2h 8mn
Bit rate mode : Constant
Bit rate : 755 Kbps
Channel(s) : 6 channels
Channel positions : Front: L C R, Side: L R, LFE
Sampling rate : 48.0 KHz
Bit depth : 24 bits
Compression mode : Lossy
Stream size : 692 MiB (6%)
Title : DUB (Mosfilm)
Language : Russian
Default : Yes
Forced : No
Audio #3
ID : 3
Format : DTS
Format/Info : Digital Theater Systems
Mode : 16
Format settings, Endianness : Big
Codec ID : A_DTS
Duration : 2h 8mn
Bit rate mode : Constant
Bit rate : 1 509 Kbps
Channel(s) : 6 channels
Channel positions : Front: L C R, Side: L R, LFE
Sampling rate : 48.0 KHz
Bit depth : 24 bits
Compression mode : Lossy
Stream size : 1.35 GiB (12%)
Title : DTS-HDMA core 5.1CH 1509kbps
Language : French
Default : No
Forced : No
Text #4
ID : 4
Format : UTF-8
Codec ID : S_TEXT/UTF8
Codec ID/Info : UTF-8 Plain Text
Language : Russian
Default : No
Forced : No
Menu
00:00:00.000 : :Chapter 01
00:08:52.114 : :Chapter 02
00:16:12.930 : :Chapter 03
00:24:53.949 : :Chapter 04
00:34:02.957 : :Chapter 05
00:42:27.127 : :Chapter 06
00:50:44.623 : :Chapter 07
01:00:56.486 : :Chapter 08
01:10:33.979 : :Chapter 09
01:17:29.936 : :Chapter 10
01:26:56.419 : :Chapter 11
01:33:42.742 : :Chapter 12
01:43:22.571 : :Chapter 13
01:56:21.015 : :Chapter 14


Империя волков скачать торрент


pb.wtf



Скачать Империя волков через торрент http://pic.kartinco.top/images/3/uvbd9gov1v.jpg Скачать фильм Империя волков через торрент бесплантно в хорошем качестве В ролях: Жан Рено, Арли Ховер, Жослин Киврен, Лаура Моранте, Филипп Бас, Дэвид Камменос, Дидье Совегран, Патрик Флёрем, Этьен Шико, Альбер ... 9.2 10 11
Info! Золотая раздача, скачанное не засчитывается.
Торрент: Зарегистрирован [2013-08-20 16:30] · скачан: 51 раз
Статус: √ проверено
Размер: 11.57 GB
Как cкачать? Как скачать Империя волков через торрент | qTorrent

% Раздел Тема Автор DL S | L
Фильмы 2001-2005 [ 2.9 GB ] Империя волков / Empire of the wolves / L'empire des loups [2005 BDRip-AVC] DUB -=Cherry=- Скачать
1 | 0

28-11-2019 20:33  

Отключить всю рекламу на сайте

    Дорогой пользователь! Огромная просьба, поблагодарите релизера, оцените раздачу и оставьте свои комментарий, если Вы скачали Империя волков через торрент бесплатно! Внесите свою лепту в развитие PiratBit!
    Комментировать посты могут только пользователи прошедшие не сложную регистрацию
    Показать сообщения:    

    Империя волков через торрент
    Скачать бесплатно Империя волков
    Империя волков скачать торрент
    Империя волков смотреть онлайн
    Cкачать фильм Империя волков бесплатно
    Империя волков скачать торрент в хорошем качестве
    Империя волков смотреть онлайн бесплатно в хорошем качестве


    Вы не можете начинать темы
    Вы не можете отвечать на сообщения
    Вы не можете редактировать свои сообщения
    Вы не можете удалять свои сообщения
    Вы не можете голосовать в опросах
    Вы не можете прикреплять файлы к сообщениям
    Вы можете скачивать файлы