Ссылка на приватное зеркало нашего сайта всего за 1$. Внимание количество ограничено!!!

2 сезон

iTunes

1 сезон

1

2 сезон

2 сезон

iTunes

1 сезон

RePack

30

Новинка

ВАЖНО

ИГРА 18+

pack

RePack

MK11
pack

Забери бонус

RePack

jed

!!Акция!!

Alien_Rage

RePack

fifa19

RePack

Assassins Creed: Odyssey

RePack

NEED FOR SPEED™ PAYBACK

4 сезон

9 сезон

Бесстыжие 9 сезон

Все сериалы

все сериалы на PB.wtf

RePack

FAR CRY 5
  

Тор 2: Царство тьмы / Thor: The Dark World (Алан Тейлор) [2013 г.,Фэнтези, Боевик, Приключения,HDTVRip 1080p[48 fps]] pb.wtf

Тор 2: Царство тьмы через торрент pb.wtf

Размер: 324 MB | Добавлен: 7 лет 3 мес. назад | Торрент скачан:211 раз
Скачать  

20-08-2013 21:41 Тор 2: Царство тьмы Скачать торрент  

Тор 2: Царство тьмы / Thor: The Dark WorldГод выпуска: 2013
Страна: США
Жанр: фэнтези, боевик, приключения
Продолжительность: 00:02:29
Перевод: Профессиональный (полное дублирование)
Субтитры: Нет
Режиссер: Алан Тейлор / Alan Taylor
В ролях: Крис Хемсворт (Thor), Натали Портман (Jane Foster), Том Хиддлстон (Loki), Энтони Хопкинс (Odin), Идрис Эльба (Heimdall), Кэт Деннингс (Darcy Lewis), Джейми Александер (Sif), Рэй Стивенсон (Volstagg), Кристофер Экклстон (Malekith), Закари Левай (Fandral), Крис О’Дауд, Стеллан Скарсгард (Dr. Erik Selvig)
Описание:
Тору предстоит сразиться за спасение Земли и Девяти Миров от таинственного врага из времен, предшествовавших возникновению вселенной. После событий «Тора» и «Мстителей» главный герой борется за восстановление порядка в космосе, но древняя раса во главе с мстительным Малекитом возвращается, чтобы погрузить вселенную обратно во тьму. Столкнувшись с врагом, которому не способен противостоять ни Один, ни весь Асгард, Тор отправляется в самое рискованное путешествие, которое воссоединит его с Джейн Фостер с Земли и заставит пожертвовать всем ради спасения вселенной.
Дата мировой премьеры: 30 октября 2013
Дата российской премьеры: 7 ноября 2013, «WDSSPR»
Дата выхода DVD релиза: 18 марта 2014, «Уолт Дисней Компани СНГ»
Дата выхода Blu-Ray релиза: 18 марта 2014, «Уолт Дисней Компани СНГ»
Качество: HDTVRip
Формат: MKV
Видео кодек: AVC
Аудио кодек: AC3
Видео: AVC, 1920x800 (2.40:1), 18000 kbps, 47,952 fps, 0,244 bpp
Аудио: русский / AC3 / 2.0 / 48 kHz / 192 kbps / 16 bit ||
General
Unique ID : 229521510167002098946817302724142242645 (0xACAC3C2472D4C3F8A4AA190B353D1B55)
Complete name : D:ТорентыThor.The.Dark.World.(2013).HDTVRip.[1080p].[48fps].[#2].[Trailer].mkv
Format : Matroska
Format version : Version 4 / Version 2
File size : 324 MiB
Duration : 2mn 29s
Overall bit rate : 18.1 Mbps
Encoded date : UTC 2013-08-15 17:03:44
Writing application : mkvmerge v6.3.0 ('You can't stop me!') built on Jun 28 2013 20:09:41
Writing library : libebml v1.3.0 + libmatroska v1.4.0

Video
ID : 1
Format : AVC
Format/Info : Advanced Video Codec
Format profile : High@L4.1
Format settings, CABAC : Yes
Format settings, ReFrames : 5 frames
Codec ID : V_MPEG4/ISO/AVC
Duration : 2mn 29s
Bit rate : 18.0 Mbps
Width : 1 920 pixels
Height : 800 pixels
Display aspect ratio : 2.40:1
Frame rate : 47.952 fps
Color space : YUV
Chroma subsampling : 4:2:0
Bit depth : 8 bits
Scan type : Progressive
Bits/(Pixel*Frame) : 0.244
Stream size : 314 MiB (97%)
Writing library : x264 core 133 r2334 a3ac64b
Encoding settings : cabac=1 / ref=5 / deblock=1:0:0 / analyse=0x3:0x133 / me=umh / subme=10 / psy=1 / psy_rd=1.00:0.00 / mixed_ref=1 / me_range=24 / chroma_me=1 / trellis=2 / 8x8dct=1 / cqm=0 / deadzone=21,11 / fast_pskip=1 / chroma_qp_offset=-2 / threads=3 / lookahead_threads=1 / sliced_threads=0 / nr=0 / decimate=1 / interlaced=0 / bluray_compat=0 / constrained_intra=0 / bframes=8 / b_pyramid=2 / b_adapt=2 / b_bias=0 / direct=3 / weightb=1 / open_gop=0 / weightp=2 / keyint=480 / keyint_min=47 / scenecut=40 / intra_refresh=0 / rc_lookahead=60 / rc=2pass / mbtree=1 / bitrate=18000 / ratetol=1.0 / qcomp=0.60 / qpmin=0 / qpmax=69 / qpstep=4 / cplxblur=20.0 / qblur=0.5 / vbv_maxrate=62500 / vbv_bufsize=78125 / nal_hrd=none / ip_ratio=1.40 / aq=1:1.00
Language : Russian
Default : Yes
Forced : No

Audio
ID : 2
Format : AC-3
Format/Info : Audio Coding 3
Format profile : Dolby Digital
Mode extension : CM (complete main)
Codec ID : A_AC3
Duration : 2mn 29s
Bit rate mode : Constant
Bit rate : 192 Kbps
Channel(s) : 2 channels
Channel positions : Front: L R
Sampling rate : 48.0 KHz
Bit depth : 16 bits
Compression mode : Lossy
Stream size : 3.43 MiB (1%)
Language : Russian
Default : Yes
Forced : No
pb.wtf



Скачать Тор 2: Царство тьмы через торрент http://i6.imageban.ru/out/2013/08/21/91e3156311901f0531d7b1a9ac7a625d.jpg Скачать фильм Тор 2: Царство тьмы через торрент бесплантно в хорошем качестве Описание: Тору предстоит сразиться за спасение Земли и Девяти Миров от таинственного врага из времен, предшествовавших возникновению ... 9.3 10 21
Info! Золотая раздача, скачанное не засчитывается.
Торрент: Зарегистрирован [2013-08-20 21:41] · скачан: 211 раз
Статус: √ проверено
Размер: 324 MB
Как cкачать? Как скачать Тор 2: Царство тьмы через торрент | qTorrent

% Раздел Тема Автор DL S | L
# Фильмы (HD 720p, 1080p) (48-60 fps) [ 3.59 GB ] Тор 2: Царство тьмы / Thor: The Dark World [2013 BDRip - HEVC 1080p 12 bit 60 FPS] dd2d3 Скачать
2 | 1
Ultra HD (UHD: 2K, 4K, 8K) — видео сверхвысокой чёткости [ 13.57 GB ] Тор 2: Царство тьмы / Thor: The Dark World [2013 UHD BDRip 2160p] DUB [] +AVO [Гаврилов] bober100 Скачать
1 | 0
Ultra HD (UHD: 2K, 4K, 8K) — видео сверхвысокой чёткости [ 44.61 GB ] Тор 2: Царство тьмы / Thor: The Dark World [2013 UHD BDRemux 2160p] DUB [] +AVO [Гаврилов] bober100 Скачать
4 | 0
Фильмы [HD 720p, 1080p] (Хороший звук DUB, MVO) [ 5.6 GB ] Тор 2: Царство тьмы / Thor: The Dark World [2013 BDRip 1080p HEVC ()] Мичман37 Скачать
1 | 0
Фильмы [HD 720p, 1080p] (Хороший звук DUB, MVO) [ 10.24 GB ] Тор 2: Царство тьмы / Thor: The Dark World [2013 BDRip 1080p] Messa-fan Скачать
1 | 0
Фильмы [HD 720p, 1080p] (Хороший звук DUB, MVO) [ 4.56 GB ] Тор 2: Царство тьмы / Thor: The Dark World [2013 BDRip 720p] DUB AVO VO potroks Скачать
1 | 0
3D Фильмы [ 40.75 GB ] Тор 2: Царство тьмы / Thor: The Dark World [2013 Blu-ray 3D EUR 1080p ] кэп Скачать
1 | 0

28-11-2019 20:33  

Отключить всю рекламу на сайте

20-08-2013 21:50 Тор 2: Царство тьмы Скачать торрент  

Честно говоря...
Посмотришь трейлер (вот таких фильмов как этот) и знаешь что в нем будет и чем закончится фильм...pb.wtf



20-08-2013 22:31 Тор 2: Царство тьмы Скачать торрент  

LeonScottfield писал(а):

и знаешь что в нем будет и чем закончится фильм...

Поэтому я их не смотрю, все самое лучшее показывают в трейлере.pb.wtf



21-08-2013 05:19 Тор 2: Царство тьмы Скачать торрент  

Vetаl писал(а):

LeonScottfield писал(а):

и знаешь что в нем будет и чем закончится фильм...

Поэтому я их не смотрю, все самое лучшее показывают в трейлере.

Точно я тоже их не смотрю pb.wtf



21-08-2013 05:55 Тор 2: Царство тьмы Скачать торрент  

:parting: я тоже не смотрю pb.wtf



25-11-2013 19:30 Тор 2: Царство тьмы Скачать торрент  

вау
фильм норм посмотритеpb.wtf



    Дорогой пользователь! Огромная просьба, поблагодарите релизера, оцените раздачу и оставьте свои комментарий, если Вы скачали Тор 2: Царство тьмы через торрент бесплатно! Внесите свою лепту в развитие PiratBit!
    Комментировать посты могут только пользователи прошедшие не сложную регистрацию
    Показать сообщения:    

    Тор 2: Царство тьмы через торрент
    Скачать бесплатно Тор 2: Царство тьмы
    Тор 2: Царство тьмы скачать торрент
    Тор 2: Царство тьмы смотреть онлайн
    Cкачать фильм Тор 2: Царство тьмы бесплатно
    Тор 2: Царство тьмы скачать торрент в хорошем качестве
    Тор 2: Царство тьмы смотреть онлайн бесплатно в хорошем качестве


    Вы не можете начинать темы
    Вы не можете отвечать на сообщения
    Вы не можете редактировать свои сообщения
    Вы не можете удалять свои сообщения
    Вы не можете голосовать в опросах
    Вы не можете прикреплять файлы к сообщениям
    Вы можете скачивать файлы