Ссылка на приватное зеркало нашего сайта всего за 1$. Внимание количество ограничено!!!

2 сезон

iTunes

1 сезон

1

iTunes

iTunes

iTunes

1 сезон

RePack

30

ИГРА 18+

pack

ВАЖНО

!!Акция!!

Alien_RageХит недели

RePack

MK11
pack

Забери бонус

RePack

jed

!!Акция!!

Alien_Rage

RePack

fifa19

RePack

Assassins Creed: Odyssey

RePack

NEED FOR SPEED™ PAYBACK

4 сезон

9 сезон

Бесстыжие 9 сезон

Все сериалы

все сериалы на PB.wtf

RePack

FAR CRY 5
  

Шестое чувство / The Sixth Sense (М. Найт Шьямалан / M. Night Shyamalan) [1999г., триллер, драма, детектив, мистика, BDRip (1080р), DVO, MVO, AVO] pb.wtf

Шестое чувство через торрент pb.wtf

Размер: 9 GB | Добавлен: 7 лет 2 мес. назад | Торрент скачан:53 раза
Скачать  

21-08-2013 01:18 Шестое чувство Скачать торрент  

Шестое чувство / The Sixth SenseГод выпуска: 1999
Страна: США
Жанр: триллер, драма, детектив, мистика
Продолжительность: 01:47:30
Перевод: Профессиональный (полное дублирование)+Профессиональный (многоголосый, закадровый)+Авторский одноголосый (Юрий Живов)+Оригинал
Субтитры: Русские, английские
Режиссер: М. Найт Шьямалан / M. Night Shyamalan
В ролях: Брюс Уиллис (Bruce Willis), Хэйли Джоэл Осмент (Haley Joel Osment), Тони Коллетт (Toni Collette), Оливия Уильямс (Olivia Williams), Тревор Морган (Trevor Morgan), Донни Уолберг (Donnie Wahlberg), Питер Энтони Тамбакис (Peter Anthony Tambakis), Джеффри Зубернис (Jeffrey Zubernis), Брюс Норрис (Bruce Norris), Гленн Фицджералд (Glenn Fitzgerald), Грег Вуд (Greg Wood), Миша Бартон (Mischa Barton)
Описание:
Детский психиатр Малкольм Кроу сталкивается со странным случаем: девятилетнего Коула посещают страшные видения - призраки умерших. Все эти люди когда-то были убиты, и теперь они обрушивают на малыша свой гнетущий страх и отчаянный гнев.
Как врач, Малкольм бессилен помочь. Но как человек, он пытается найти ключ к ужасному миру Коула, в котором веет дыхание смерти и распускаются страшные цветы боли.
Рейтинг
kinopoisk.ru: 8.342 (99 955)
imdb.com: 8.20 (450 672)
MPAA: PG-13 - Детям до 13 лет просмотр не желателен
Качество: BDRip (1080р)
Формат: MKV
Видео кодек: AVC
Аудио кодек: AC3
Видео: AVC, 1920x1040 (16:9), 9950 kbps, 23,976 fps, 0,208 bpp
Аудио №1: русский / AC3 / 5.1 / 48 kHz / 384 kbps / 16 bit
Аудио №2: русский / AC3 / 5.1 / 48 kHz / 384 kbps / 16 bit
Аудио №3: русский / AC3 / 5.1 / 48 kHz / 640 kbps / 16 bit
Аудио №4: английский / AC3 / 5.1 / 48 kHz / 640 kbps / 16 bit
Общее
Кол-во : 284
Кол-во потоков такого типа : 1
Тип потока : General
Тип потока : Общее
Идентификатор типа потока : 0
Inform : Matroska: 9,00 Гбайт, 1 ч. 47 м.
Уникальный идентификатор : 189261218783533301818040637341748543390
Уникальный идентификатор : 189261218783533301818040637341748543390 (0x8E626285F707A9F4868B39AC5C31BF9E)
Кол-во видеопотоков : 1
Кол-во аудиопотоков : 4
Кол-во текстовых потоков : 2
Video_Format_List : AVC
Video_Format_WithHint_List : AVC
Видеокодеки : AVC
Video_Language_List : English
Audio_Format_List : AC-3 / AC-3 / AC-3 / AC-3
Audio_Format_WithHint_List : AC-3 / AC-3 / AC-3 / AC-3
Аудиокодеки : AC3 / AC3 / AC3 / AC3
Audio_Language_List : Russian / Russian / Russian / English
Text_Format_List : UTF-8 / UTF-8
Text_Format_WithHint_List : UTF-8 / UTF-8
Текстовые кодеки : UTF-8 / UTF-8
Text_Language_List : Russian / English
Полное имя : H:ТОРРЕНТЫSixth Sense.1999.BD.Rip.1080p.h264.3xRus.Eng.mkv
Имя папки : H:ТОРРЕНТЫ
Имя файла : Sixth Sense.1999.BD.Rip.1080p.h264.3xRus.Eng
Расширение : mkv
Формат : Matroska
Формат : Matroska
Формат/Ссылка : http://packs.matroska.org/
Формат/Используется в : mkv mk3d mka mks
Коммерческое название : Matroska
Версия формата : Version 1
Кодек : Matroska
Кодек : Matroska
Кодек/Ссылка : http://packs.matroska.org/
Кодек/Используется в : mkv mk3d mka mks
Размер файла : 9667810894
Размер файла : 9,00 Гбайт
Размер файла : 9 Гбайт
Размер файла : 9,0 Гбайт
Размер файла : 9,00 Гбайт
Размер файла : 9,004 Гбайт
Продолжительность : 6450496
Продолжительность : 1 ч. 47 м.
Продолжительность : 1 ч. 47 м. 30 с. 496 мс.
Продолжительность : 1 ч. 47 м.
Продолжительность : 01:47:30.496
Общий поток : 11990161
Общий поток : 12,0 Мбит/сек
Размер потока : 192394290
Размер потока : 183 Мбайт (2%)
Размер потока : 183 Мбайт
Размер потока : 183 Мбайт
Размер потока : 183 Мбайт
Размер потока : 183,5 Мбайт
Размер потока : 183 Мбайт (2%)
Пропорции потока : 0.01990
Дата кодирования : UTC 2008-08-10 23:37:45
Дата файла : UTC 2013-08-20 12:43:34.833
Дата файла (местная) : 2013-08-20 19:43:34.833
Дата изменения файла : UTC 2013-08-21 00:46:49.950
Дата изменения файла (местная) : 2013-08-21 07:46:49.950
Программа кодирования : mkvmerge v2.2.0 ('Turn It On Again') built on Mar 4 2008 12:58:26
Библиотека кодирования : libebml v0.7.7 + libmatroska v0.8.1
Библиотека кодирования : libebml v0.7.7 + libmatroska v0.8.1

Видео
Кол-во : 263
Кол-во потоков такого типа : 1
Тип потока : Video
Тип потока : Видео
Идентификатор типа потока : 0
StreamOrder : 0
Inform : English, 9950 Кбит/сек, 1920*1040 (1,85:1), в 23,976 кадра/сек, AVC (High@L5.0) (CABAC / 5 Ref Frames)
Идентификатор : 1
Идентификатор : 1
Уникальный идентификатор : 1
Формат : AVC
Формат/Информация : Advanced Video Codec
Формат/Ссылка : http://developers.videolan.org/x264.html
Коммерческое название : AVC
Профиль формата : High@L5.0
Настройки формата : CABAC / 5 Ref Frames
Параметр CABAC формата : Yes
Параметр CABAC формата : Да
Параметр ReFrames формата : 5
Параметр ReFrames формата : 5 кадров
Интернет-тип носителя : video/H264
Идентификатор кодека : V_MPEG4/ISO/AVC
Идентификатор кодека/Ссылка : http://ffdshow-tryout.sourceforge.net/
Кодек : V_MPEG4/ISO/AVC
Кодек : AVC
Кодек/Семейство : AVC
Кодек/Информация : Advanced Video Codec
Кодек/Ссылка : http://ffdshow-tryout.sourceforge.net/
Профиль кодека : High@L5.0
Настройки кодека : CABAC / 5 Ref Frames
Параметр CABAC кодека : Yes
Codec_Settings_RefFrames : 5
Продолжительность : 6450492
Продолжительность : 1 ч. 47 м.
Продолжительность : 1 ч. 47 м. 30 с. 492 мс.
Продолжительность : 1 ч. 47 м.
Продолжительность : 01:47:30.492
Битрейт : 9950000
Битрейт : 9950 Кбит/сек
Ширина : 1920
Ширина : 1920 пикселей
Высота : 1040
Высота : 1040 пикселей
Пропорции пикселя : 1.000
Соотношение сторон : 1.846
Соотношение сторон : 1,85:1
Режим частоты кадров : CFR
Режим частоты кадров : Постоянный
Частота кадров : 23.976
Частота кадров : 23,976 кадра/сек
Счётчик кадров : 154657
Разрешение : 8
Разрешение : 8 бит
Колориметрия : 4:2:0
Цветовое пространство : YUV
Субдискретизация насыщенности : 4:2:0
Битовая глубина : 8
Битовая глубина : 8 бит
Тип развёртки : Progressive
Тип развёртки : Прогрессивная
Переплетение : PPF
Переплетение : Прогрессивная
Бит/(Пиксели*Кадры) : 0.208
Задержка : 0
Задержка : 00:00:00.000
Задержка в оригинале : Container
Задержка в оригинале : Контейнер
Размер потока : 7824089628
Размер потока : 7,29 Гбайт (81%)
Размер потока : 7 Гбайт
Размер потока : 7,3 Гбайт
Размер потока : 7,29 Гбайт
Размер потока : 7,287 Гбайт
Размер потока : 7,29 Гбайт (81%)
Пропорции потока : 0.80929
Библиотека кодирования : x264 - core 60 r928M 4816918
Библиотека кодирования : x264 core 60 r928M 4816918
Библиотека кодирования/Имя : x264
Библиотека кодирования/Version : core 60 r928M 4816918
Настройки программы : cabac=1 / ref=5 / deblock=1:0:0 / analyse=0x3:0x133 / me=hex / subme=6 / psy_rd=1.000000 / brdo=1 / mixed_ref=1 / me_range=16 / chroma_me=1 / trellis=0 / 8x8dct=1 / cqm=0 / deadzone=21,11 / chroma_qp_offset=0 / threads=3 / nr=0 / decimate=1 / mbaff=0 / bframes=3 / b_pyramid=1 / b_adapt=1 / b_bias=0 / direct=3 / wpredb=1 / bime=1 / keyint=240 / keyint_min=24 / scenecut=40(pre) / rc=2pass / bitrate=9950 / ratetol=1.0 / rceq='blurCplx^(1-qComp)' / qcomp=1.00 / qpmin=10 / qpmax=51 / qpstep=4 / cplxblur=20.0 / qblur=0.5 / ip_ratio=1.40 / pb_ratio=1.30 / aq=2:1.00
Язык : en
Язык : English
Язык : English
Язык : en
Язык : eng
Язык : en
Default : Yes
Default : Да
Forced : No
Forced : Нет

Аудио #1
Кол-во : 234
Кол-во потоков такого типа : 4
Тип потока : Audio
Тип потока : Аудио
Идентификатор типа потока : 0
Позиция идентификатора типа потока : 1
StreamOrder : 1
Inform : Russian, 384 Кбит/сек, 48,0 КГц, 16 бит, 6 каналов, AC-3
Идентификатор : 2
Идентификатор : 2
Уникальный идентификатор : 1115358099
Формат : AC-3
Формат/Информация : Audio Coding 3
Коммерческое название : AC-3
Расширение режима : CM (complete main)
Параметр Endianness формата : Big
Идентификатор кодека : A_AC3
Кодек : AC3
Кодек : AC3
Кодек/Семейство : AC3
Кодек/Информация : Dolby AC3
Продолжительность : 6450496
Продолжительность : 1 ч. 47 м.
Продолжительность : 1 ч. 47 м. 30 с. 496 мс.
Продолжительность : 1 ч. 47 м.
Продолжительность : 01:47:30.496
Вид битрейта : CBR
Вид битрейта : Постоянный
Битрейт : 384000
Битрейт : 384 Кбит/сек
Каналы : 6
Каналы : 6 каналов
Расположение каналов : Front: L C R, Side: L R, LFE
Расположение каналов : 3/2/0.1
Частота : 48000
Частота : 48,0 КГц
Количество образцов : 309623808
Разрешение : 16
Разрешение : 16 бит
Битовая глубина : 16
Битовая глубина : 16 бит
Метод сжатия : Lossy
Метод сжатия : С потерями
Задержка : 0
Задержка : 00:00:00.000
Задержка в оригинале : Container
Задержка в оригинале : Контейнер
Задержка видео : 0
Задержка видео : 0
Размер потока : 309623808
Размер потока : 295 Мбайт (3%)
Размер потока : 295 Мбайт
Размер потока : 295 Мбайт
Размер потока : 295 Мбайт
Размер потока : 295,3 Мбайт
Размер потока : 295 Мбайт (3%)
Пропорции потока : 0.03203
Заголовок : Dublyazh AC3 5.1 384 kbps
Язык : ru
Язык : Russian
Язык : Russian
Язык : ru
Язык : rus
Язык : ru
Default : Yes
Default : Да
Forced : No
Forced : Нет
bsid : 8
dialnorm : -31
dialnorm/String : -31 dB
acmod : 7
lfeon : 1
dialnorm_Average : -31
dialnorm_Average/String : -31 dB
dialnorm_Minimum : -31
dialnorm_Minimum/String : -31 dB
dialnorm_Maximum : -31
dialnorm_Maximum/String : -31 dB
dialnorm_Count : 2

Аудио #2
Кол-во : 234
Кол-во потоков такого типа : 4
Тип потока : Audio
Тип потока : Аудио
Идентификатор типа потока : 1
Позиция идентификатора типа потока : 2
StreamOrder : 2
Inform : Russian, 384 Кбит/сек, 48,0 КГц, 16 бит, 6 каналов, AC-3
Идентификатор : 3
Идентификатор : 3
Уникальный идентификатор : 2395271093
Формат : AC-3
Формат/Информация : Audio Coding 3
Коммерческое название : AC-3
Расширение режима : CM (complete main)
Параметр Endianness формата : Big
Идентификатор кодека : A_AC3
Кодек : AC3
Кодек : AC3
Кодек/Семейство : AC3
Кодек/Информация : Dolby AC3
Продолжительность : 6450496
Продолжительность : 1 ч. 47 м.
Продолжительность : 1 ч. 47 м. 30 с. 496 мс.
Продолжительность : 1 ч. 47 м.
Продолжительность : 01:47:30.496
Вид битрейта : CBR
Вид битрейта : Постоянный
Битрейт : 384000
Битрейт : 384 Кбит/сек
Каналы : 6
Каналы : 6 каналов
Расположение каналов : Front: L C R, Side: L R, LFE
Расположение каналов : 3/2/0.1
Частота : 48000
Частота : 48,0 КГц
Количество образцов : 309623808
Разрешение : 16
Разрешение : 16 бит
Битовая глубина : 16
Битовая глубина : 16 бит
Метод сжатия : Lossy
Метод сжатия : С потерями
Задержка : 0
Задержка : 00:00:00.000
Задержка в оригинале : Container
Задержка в оригинале : Контейнер
Задержка видео : 0
Задержка видео : 0
Размер потока : 309623808
Размер потока : 295 Мбайт (3%)
Размер потока : 295 Мбайт
Размер потока : 295 Мбайт
Размер потока : 295 Мбайт
Размер потока : 295,3 Мбайт
Размер потока : 295 Мбайт (3%)
Пропорции потока : 0.03203
Заголовок : Mnogogoloska AC3 5.1 384 kbps
Язык : ru
Язык : Russian
Язык : Russian
Язык : ru
Язык : rus
Язык : ru
Default : No
Default : Нет
Forced : No
Forced : Нет
bsid : 8
dialnorm : -31
dialnorm/String : -31 dB
acmod : 7
lfeon : 1
dialnorm_Average : -31
dialnorm_Average/String : -31 dB
dialnorm_Minimum : -31
dialnorm_Minimum/String : -31 dB
dialnorm_Maximum : -31
dialnorm_Maximum/String : -31 dB
dialnorm_Count : 2

Аудио #3
Кол-во : 243
Кол-во потоков такого типа : 4
Тип потока : Audio
Тип потока : Аудио
Идентификатор типа потока : 2
Позиция идентификатора типа потока : 3
StreamOrder : 3
Идентификатор : 4
Идентификатор : 4
Уникальный идентификатор : 2692656317
Формат : AC-3
Формат/Информация : Audio Coding 3
Коммерческое название : AC-3
Расширение режима : CM (complete main)
Параметр Endianness формата : Big
Идентификатор кодека : A_AC3
Кодек : AC3
Кодек : AC3
Кодек/Семейство : AC3
Кодек/Информация : Dolby AC3
Продолжительность : 6450496
Продолжительность : 1 ч. 47 м.
Продолжительность : 1 ч. 47 м. 30 с. 496 мс.
Продолжительность : 1 ч. 47 м.
Продолжительность : 01:47:30.496
Вид битрейта : CBR
Вид битрейта : Постоянный
Битрейт : 640000
Битрейт : 640 Кбит/сек
Каналы : 6
Каналы : 6 каналов
Расположение каналов : Front: L C R, Side: L R, LFE
Расположение каналов : 3/2/0.1
Частота : 48000
Частота : 48,0 КГц
Количество образцов : 309623808
Разрешение : 16
Разрешение : 16 бит
Битовая глубина : 16
Битовая глубина : 16 бит
Метод сжатия : Lossy
Метод сжатия : С потерями
Задержка : 0
Задержка : 00:00:00.000
Задержка в оригинале : Container
Задержка в оригинале : Контейнер
Задержка видео : 0
Задержка видео : 0
Размер потока : 516039680
Размер потока : 492 Мбайт (5%)
Размер потока : 492 Мбайт
Размер потока : 492 Мбайт
Размер потока : 492 Мбайт
Размер потока : 492,1 Мбайт
Размер потока : 492 Мбайт (5%)
Пропорции потока : 0.05338
Заголовок : Jivov AC3 5.1 640 kbps
Язык : ru
Язык : Russian
Язык : Russian
Язык : ru
Язык : rus
Язык : ru
Default : No
Default : Нет
Forced : No
Forced : Нет
bsid : 8
dialnorm : -28
dialnorm/String : -28 dB
compr : -0.28
compr/String : -0.28 dB
acmod : 7
lfeon : 1
dialnorm_Average : -28
dialnorm_Average/String : -28 dB
dialnorm_Minimum : -28
dialnorm_Minimum/String : -28 dB
dialnorm_Maximum : -28
dialnorm_Maximum/String : -28 dB
dialnorm_Count : 2
compr_Average : -0.28
compr_Average/String : -0.28 dB
compr_Minimum : -0.28
compr_Minimum/String : -0.28 dB
compr_Maximum : -0.28
compr_Maximum/String : -0.28 dB
compr_Count : 2

Аудио #4
Кол-во : 243
Кол-во потоков такого типа : 4
Тип потока : Audio
Тип потока : Аудио
Идентификатор типа потока : 3
Позиция идентификатора типа потока : 4
StreamOrder : 4
Идентификатор : 5
Идентификатор : 5
Уникальный идентификатор : 1300795037
Формат : AC-3
Формат/Информация : Audio Coding 3
Коммерческое название : AC-3
Расширение режима : CM (complete main)
Параметр Endianness формата : Big
Идентификатор кодека : A_AC3
Кодек : AC3
Кодек : AC3
Кодек/Семейство : AC3
Кодек/Информация : Dolby AC3
Продолжительность : 6450496
Продолжительность : 1 ч. 47 м.
Продолжительность : 1 ч. 47 м. 30 с. 496 мс.
Продолжительность : 1 ч. 47 м.
Продолжительность : 01:47:30.496
Вид битрейта : CBR
Вид битрейта : Постоянный
Битрейт : 640000
Битрейт : 640 Кбит/сек
Каналы : 6
Каналы : 6 каналов
Расположение каналов : Front: L C R, Side: L R, LFE
Расположение каналов : 3/2/0.1
Частота : 48000
Частота : 48,0 КГц
Количество образцов : 309623808
Разрешение : 16
Разрешение : 16 бит
Битовая глубина : 16
Битовая глубина : 16 бит
Метод сжатия : Lossy
Метод сжатия : С потерями
Задержка : 0
Задержка : 00:00:00.000
Задержка в оригинале : Container
Задержка в оригинале : Контейнер
Задержка видео : 0
Задержка видео : 0
Размер потока : 516039680
Размер потока : 492 Мбайт (5%)
Размер потока : 492 Мбайт
Размер потока : 492 Мбайт
Размер потока : 492 Мбайт
Размер потока : 492,1 Мбайт
Размер потока : 492 Мбайт (5%)
Пропорции потока : 0.05338
Заголовок : AC3 5.1 640 kbps
Язык : en
Язык : English
Язык : English
Язык : en
Язык : eng
Язык : en
Default : No
Default : Нет
Forced : No
Forced : Нет
bsid : 6
dialnorm : -31
dialnorm/String : -31 dB
compr : -0.28
compr/String : -0.28 dB
acmod : 7
lfeon : 1
dialnorm_Average : -31
dialnorm_Average/String : -31 dB
dialnorm_Minimum : -31
dialnorm_Minimum/String : -31 dB
dialnorm_Maximum : -31
dialnorm_Maximum/String : -31 dB
dialnorm_Count : 2
compr_Average : -0.28
compr_Average/String : -0.28 dB
compr_Minimum : -0.28
compr_Minimum/String : -0.28 dB
compr_Maximum : -0.28
compr_Maximum/String : -0.28 dB
compr_Count : 2

Текст #1
Кол-во : 195
Кол-во потоков такого типа : 2
Тип потока : Text
Тип потока : Текст
Идентификатор типа потока : 0
Позиция идентификатора типа потока : 1
StreamOrder : 5
Inform : Russian, UTF-8
Идентификатор : 6
Идентификатор : 6
Уникальный идентификатор : 2588264633
Формат : UTF-8
Коммерческое название : UTF-8
Идентификатор кодека : S_TEXT/UTF8
Идентификатор кодека/Информация : UTF-8 Plain Text
Кодек : S_TEXT/UTF8
Кодек : UTF-8
Кодек/Информация : UTF-8 Plain Text
Язык : ru
Язык : Russian
Язык : Russian
Язык : ru
Язык : rus
Язык : ru
Default : No
Default : Нет
Forced : No
Forced : Нет

Текст #2
Кол-во : 195
Кол-во потоков такого типа : 2
Тип потока : Text
Тип потока : Текст
Идентификатор типа потока : 1
Позиция идентификатора типа потока : 2
StreamOrder : 6
Inform : English, UTF-8
Идентификатор : 7
Идентификатор : 7
Уникальный идентификатор : 3642121377
Формат : UTF-8
Коммерческое название : UTF-8
Идентификатор кодека : S_TEXT/UTF8
Идентификатор кодека/Информация : UTF-8 Plain Text
Кодек : S_TEXT/UTF8
Кодек : UTF-8
Кодек/Информация : UTF-8 Plain Text
Язык : en
Язык : English
Язык : English
Язык : en
Язык : eng
Язык : en
Default : No
Default : Нет
Forced : No
Forced : Нет
pb.wtf



Скачать Шестое чувство через торрент http://i074.radikal.ru/1308/c1/c0e4b46dafc6.jpg Скачать фильм Шестое чувство через торрент бесплантно в хорошем качестве Описание: Детский психиатр Малкольм Кроу сталкивается со странным случаем: девятилетнего Коула посещают страшные видения - призраки ... 10 10 13
Info! Золотая раздача, скачанное не засчитывается.
Торрент: Зарегистрирован [2013-08-21 01:37] · скачан: 53 раз
Статус: √ проверено
Размер: 9 GB
Как cкачать? Как скачать Шестое чувство через торрент | qTorrent

28-11-2019 20:33  

Отключить всю рекламу на сайте

    Дорогой пользователь! Огромная просьба, поблагодарите релизера, оцените раздачу и оставьте свои комментарий, если Вы скачали Шестое чувство через торрент бесплатно! Внесите свою лепту в развитие PiratBit!
    Комментировать посты могут только пользователи прошедшие не сложную регистрацию
    Показать сообщения:    

    Шестое чувство через торрент
    Скачать бесплатно Шестое чувство
    Шестое чувство скачать торрент
    Шестое чувство смотреть онлайн
    Cкачать фильм Шестое чувство бесплатно
    Шестое чувство скачать торрент в хорошем качестве
    Шестое чувство смотреть онлайн бесплатно в хорошем качестве


    Вы не можете начинать темы
    Вы не можете отвечать на сообщения
    Вы не можете редактировать свои сообщения
    Вы не можете удалять свои сообщения
    Вы не можете голосовать в опросах
    Вы не можете прикреплять файлы к сообщениям
    Вы можете скачивать файлы