Мега распродажа FORZA HORIZON 4 ULTIMATE+ВСЕ DLC+ОНЛАЙН всего за 499р. 349 руб. (супер цена). Внимание количество ограничено!!!

iTunes

1+1

iTunes

мы

iTunes

1

1 сезон

Чернобыль

1 сезон

Ральф против интернета

Лицензия

ПШазам

8 сезон

Игра престолов

Лицензия

30
pack

ВАЖНО

!!Акция!!

Alien_RageХит недели

RePack

Resident Evil 21

ИГРА 18+

pack

RePack

Metro:Exodus

!!Акция!!

Alien_Rage

RePack

fifa19

RePack

Assassins Creed: Odyssey

RePack

NEED FOR SPEED™ PAYBACK

3 сезон

9 сезон

Бесстыжие 9 сезон

Все сериалы

все сериалы на PB.wtf

RePack

FAR CRY 5
Ребята, катастрофически не хватает 2730р. для оплаты серверов за ИЮНЬ (всвязи с блокировками трафик упал в 3 раза), 1-2р., выручайте.
  

Между ангелом и бесом / Les anges gardiens (Жан-Мари Пуаре) [1995 г., HDTV 720р,MVO + Original Fr ] pb.wtf

Между ангелом и бесом через торрент pb.wtf

Размер: 6.33 GB | Добавлен: 5 лет 10 мес. назад | Торрент скачан:77 раз
Скачать  

21-08-2013 09:41 Между ангелом и бесом Скачать торрент  

Между ангелом и бесом / Les anges gardiens
Год выпуска: 1995
Страна: Франция
Продолжительность: 1:47
Перевод: Профессиональный многоголосый закадровый

Режиссер: Жан-Мари Пуаре




В ролях: Жерар Депардье, Кристиан Клавье, Ева Гримальди, Ив Ренье, Лоран Жандрон,

: Герою Жерара Депардье, преуспевающему владельцу кабарэ со стриптизом, звонит из Гонконга друг из бурного прошлого, в котором их связывает долгом солдатской дружбы своевременно брошенная граната. Он просит его взять 20 процентов от суммы в 30 млн долларов и семилетнего мальчика-китайца с тем, чтобы доставить к матери в Париж. Договорить друг не успевает — его размазывают по стене грузовиком, гонящиеся за ним местные мафиози.

Главный герой вылетает в Гонконг, находит мальчика, и теперь уже за ним начинается бешеная охота. Он ухитряется получить деньги в банке и вывезти мальчика при помощи священника, сопровождающего в приют трудновоспитуемых детишек. Деньги же подкладывает доброму католику в ежедневник с изображением Св. Екатерины. Боевые действия перемещаются на территорию Франции.


Качество: HDTV 720р
Формат: MPEG-TS
Видео кодек: AVC
Аудио кодек: AC3
Видео: 1280x720 2.35:1 H.264 7 078 Kbps~8 466 Kbps 50.000 fps
Аудио#1: Русский 5.1 48kHz 384kbps (многоголосый закадровый)
Аудио#2: Русский 2.0 48kHz 192kbps (многоголосый закадровый) ОРТ
Аудио#3: Французский 5.1 48kHz 384kbps




E:киноМежду ангелом и бесомLes Anges Gardiens.1995.720.h264.DD5.1.Fr.2xRu.ts
General #1
ID : 1 (0x1)
Complete name : E:киноМежду ангелом и бесомLes Anges Gardiens.1995.720.h264.DD5.1.Fr.2xRu.ts
Format : MPEG-TS
File size : 6.33 GiB
Duration : 1h 47mn
Overall bit rate mode : Variable
Overall bit rate : 8 466 Kbps
Maximum Overall bit rate : 35.5 Mbps
Video #4113
ID : 4113 (0x1011)
Menu ID : 1 (0x1)
Format : AVC
Format/Info : Advanced Video Codec
Format profile : High@L4.0
Format settings, CABAC : Yes
Format settings, ReFrames : 2 frames
Format settings, GOP : M=3, N=24
Codec ID : 27
Duration : 1h 46mn
Bit rate mode : Variable
Bit rate : 7 078 Kbps
Maximum bit rate : 13.2 Mbps
Width : 1 280 pixels
Height : 720 pixels
Display aspect ratio : 16:9
Frame rate : 50.000 fps
Color space : YUV
Chroma subsampling : 4:2:0
Bit depth : 8 bits
Scan type : Progressive
Bits/(Pixel*Frame) : 0.154
Stream size : 5.29 GiB (84%)
Color primaries : BT.709
Transfer characteristics : BT.709
Matrix coefficients : BT.709
Audio #4352
ID : 4352 (0x1100)
Menu ID : 1 (0x1)
Format : AC-3
Format/Info : Audio Coding 3
Mode extension : CM (complete main)
Format settings, Endianness : Big
Codec ID : 129
Duration : 1h 47mn
Bit rate mode : Constant
Bit rate : 384 Kbps
Channel(s) : 6 channels
Channel positions : Front: L C R, Side: L R, LFE
Sampling rate : 48.0 KHz
Bit depth : 16 bits
Compression mode : Lossy
Delay relative to video : 100ms
Stream size : 294 MiB (5%)
Language : Russian
Audio #4353
ID : 4353 (0x1101)
Menu ID : 1 (0x1)
Format : AC-3
Format/Info : Audio Coding 3
Mode extension : CM (complete main)
Format settings, Endianness : Big
Codec ID : 129
Duration : 1h 46mn
Bit rate mode : Constant
Bit rate : 192 Kbps
Channel(s) : 1 channel
Channel positions : Front: C
Sampling rate : 48.0 KHz
Bit depth : 16 bits
Compression mode : Lossy
Delay relative to video : 100ms
Stream size : 147 MiB (2%)
Language : Russian
Audio #4354
ID : 4354 (0x1102)
Menu ID : 1 (0x1)
Format : AC-3
Format/Info : Audio Coding 3
Mode extension : CM (complete main)
Format settings, Endianness : Big
Codec ID : 129
Duration : 1h 47mn
Bit rate mode : Constant
Bit rate : 384 Kbps
Channel(s) : 6 channels
Channel positions : Front: L C R, Side: L R, LFE
Sampling rate : 48.0 KHz
Bit depth : 16 bits
Compression mode : Lossy
Delay relative to video : 100ms
Stream size : 294 MiB (5%)
Language : French


Между ангелом и бесом скачать торрент


pb.wtf



Скачать Между ангелом и бесом через торрент http://pic.kartinco.top/images/3/52bm6ktiq7.jpg Скачать фильм Между ангелом и бесом через торрент бесплантно в хорошем качестве В ролях: Жерар Депардье, Кристиан Клавье, Ева Гримальди, Ив Ренье, Лоран Жандрон, : Герою Жерара Депардье, преуспевающему владельцу кабарэ ... 7.4 10 7
Info! Золотая раздача, скачанное не засчитывается.
Торрент: Зарегистрирован [2013-08-21 09:41] · скачан: 77 раз
Статус: √ проверено
Размер: 6.33 GB
Как cкачать? Как скачать Между ангелом и бесом через торрент | qTorrent

% Раздел Тема Автор DL S | L
Фильмы (WEB-DL 720p, 1080p) [ 6.33 GB ] Между ангелом и бесом / Les anges gardiens [1995 HDTV + Оригинал] Ke$h@ Скачать
1 | 0
Фильмы до 2000 г. [ 1.37 GB ] Между ангелом и бесом / Les anges gardiens [1995 DVDRip] Lil Badun Скачать
1 | 0


>> Регистрируемся здесь <<






Отзывы и комментарии о схеме читаем и пишем здесь: ---> Отзывы и комментарии о схеме

Новые благодарочки в телеграм довольных пользователей:
скриншот   скриншот   скриншот   скриншот   скриншот

21-08-2013 15:03 Между ангелом и бесом Скачать торрент  

старый хороший фильмецpb.wtf



    Дорогой пользователь! Огромная просьба, поблагодарите релизера, оцените раздачу и оставьте свои комментарий, если Вы скачали Между ангелом и бесом через торрент бесплатно! Внесите свою лепту в развитие PiratBit!
    Комментировать посты могут только пользователи прошедшие не сложную регистрацию
    Показать сообщения:    

    Между ангелом и бесом через торрент
    Скачать бесплатно Между ангелом и бесом
    Между ангелом и бесом скачать торрент
    Между ангелом и бесом смотреть онлайн
    Cкачать фильм Между ангелом и бесом бесплатно
    Между ангелом и бесом скачать торрент в хорошем качестве
    Между ангелом и бесом смотреть онлайн бесплатно в хорошем качестве


    Вы не можете начинать темы
    Вы не можете отвечать на сообщения
    Вы не можете редактировать свои сообщения
    Вы не можете удалять свои сообщения
    Вы не можете голосовать в опросах
    Вы не можете прикреплять файлы к сообщениям
    Вы можете скачивать файлы