Ссылка на приватное зеркало нашего сайта всего за 1$. Внимание количество ограничено!!!

2 сезон

iTunes

1 сезон

1

iTunes

iTunes

iTunes

1 сезон

RePack

30

ИГРА 18+

pack

ВАЖНО

!!Акция!!

Alien_RageХит недели

RePack

MK11
pack

Забери бонус

RePack

jed

!!Акция!!

Alien_Rage

RePack

fifa19

RePack

Assassins Creed: Odyssey

RePack

NEED FOR SPEED™ PAYBACK

4 сезон

9 сезон

Бесстыжие 9 сезон

Все сериалы

все сериалы на PB.wtf

RePack

FAR CRY 5
  

Васаби / Wasabi (Жерар Кравчик / Gérard Krawczyk) [2001 г., криминал, боевик, комедия, BDRip 720p, DUB,DVO,MVO,AVO,Original Fr,SUB] pb.wtf

Васаби через торрент pb.wtf

Размер: 6.08 GB | Добавлен: 7 лет 2 мес. назад | Торрент скачан:89 раз
Скачать  

21-08-2013 12:46 Васаби Скачать торрент  

Васаби / Wasabi«For those who take their action raw.»
Год выпуска: 2001
Страна: Франция, Япония
Жанр: криминал, боевик, комедия,
Продолжительность: 1:33:44
Перевод: профессиональный (полное дублирование)
профессиональный (многоголосый закадровый)
профессиональный (двухголосый закадровый)
авторский (одноголосый закадровый)
Субтитры: Русские, Английские, Французские

Режиссер: Жерар Кравчик / Gérard Krawczyk

Бюджет: €15 300 000




В ролях: Жан Рено, Риоко Хиросуэ, Мишель Мюллер, Кароль Буке, Йоши Оида, Кристиан Синниже, Александр Брик, Жан-Марк Монтальто, Вероник Бальм, Фабио Зенони и другие...,

: Юбер Фиорентини — французский полицейский, исполняя последнюю волю когда-то им любимой японской девушки, вынужден отправиться в далекую Японию, где ему приходится встретиться со старым другом и дочерью, о существовании которой он даже не подозревал. А также получить наследство в 200 млн. долларов, и познакомиться с японской якудзой, охотящейся за заманчивой суммой

Качество: BDRip 720p
Формат: MKV
Видео кодек: AVC
Аудио кодек: AC3
Видео: 1280x544 / 24 fps / 2.35:1 / High Profile 4.1 / 5768 kbps~9 257 Kbps
Аудио#1: 48 kHz, 5.1 ch, 448 kbps |Дублированный, R5 Союз-Видео|
Аудио#2: 48 kHz, 5.1 ch, 448 kbps |Многоголосый, R5 CP-Digital
Аудио#3: 48 kHz, 5.1 ch, 384 kbps |Многоголосый, LDV
Аудио#4: 48 kHz, 5.1 ch, 384 kbps |Многоголосый, Домашнее видео|
Аудио#5: 48 kHz, 5.1 ch, 448 kbps |Двухголосый, Гланц и Королёва|
Аудио#6: 48 kHz, 2.0 ch, 192 kbps |Многоголосый, НТВ|
Аудио#7: 48 kHz, 2.0 ch, 192 kbps |Многоголосый, РТР|
Аудио#8: 48 kHz, 2.0 ch, 192 kbps |Авторский, Володарский|
Аудио#9: 48 kHz, 2.0 ch, 192 kbps |Авторский, Векшин|
Аудио#10: 48 kHz, 2.0 ch, 192 kbps |Авторский, Гранкин|
Аудио#11: 48 kHz, 5.1 ch, 448 kbps |Оригинальный французский|




E:киноВасабиWasabi.2001.BluRay.720p.AC3.10xRus.Eng.Sub.x264.mkv
General
Unique ID : 170375419700110284523846887788741937114 (0x802D1CBCFE1C67618762DFD1356047DA)
Complete name : E:киноВасабиWasabi.2001.BluRay.720p.AC3.10xRus.Eng.Sub.x264.mkv
Format : Matroska
Format version : Version 2
File size : 6.08 GiB
Duration : 1h 34mn
Overall bit rate : 9 257 Kbps
Encoded date : UTC 2011-04-25 04:37:45
Writing application : mkvmerge v4.6.0 ('Still Crazy After All These Years') built on Mar 10 2011 02:50:32
Writing library : libebml v1.2.0 + libmatroska v1.1.0
Video #1
ID : 1
Format : AVC
Format/Info : Advanced Video Codec
Format profile : High@L4.1
Format settings, CABAC : Yes
Format settings, ReFrames : 12 frames
Codec ID : V_MPEG4/ISO/AVC
Duration : 1h 34mn
Bit rate : 5 768 Kbps
Width : 1 280 pixels
Height : 544 pixels
Display aspect ratio : 2.35:1
Frame rate mode : Constant
Frame rate : 24.000 fps
Color space : YUV
Chroma subsampling : 4:2:0
Bit depth : 8 bits
Scan type : Progressive
Bits/(Pixel*Frame) : 0.345
Stream size : 3.65 GiB (60%)
Title : Wasabi.2001.BluRay.720p.AC3.x264-CHD
Writing library : x264 core 114 r1900 60ef1f8
Encoding settings : cabac=1 / ref=12 / deblock=1:-3:-3 / analyse=0x3:0x113 / me=umh / subme=9 / psy=1 / psy_rd=1.10:0.15 / mixed_ref=1 / me_range=32 / chroma_me=1 / trellis=2 / 8x8dct=1 / cqm=2 / deadzone=21,11 / fast_pskip=0 / chroma_qp_offset=-2 / threads=12 / sliced_threads=0 / nr=0 / decimate=1 / interlaced=0 / constrained_intra=0 / bframes=6 / b_pyramid=2 / b_adapt=2 / b_bias=0 / direct=3 / weightb=1 / open_gop=0 / weightp=2 / keyint=250 / keyint_min=24 / scenecut=40 / intra_refresh=0 / rc_lookahead=60 / rc=2pass / mbtree=1 / bitrate=5768 / ratetol=1.0 / qcomp=0.60 / qpmin=1 / qpmax=63 / qpstep=4 / cplxblur=20.0 / qblur=0.5 / vbv_maxrate=40000 / vbv_bufsize=30000 / nal_hrd=none / ip_ratio=1.40 / aq=1:0.80
Language : French
Default : Yes
Forced : No
Audio #2
ID : 2
Format : AC-3
Format/Info : Audio Coding 3
Mode extension : CM (complete main)
Format settings, Endianness : Big
Codec ID : A_AC3
Duration : 1h 34mn
Bit rate mode : Constant
Bit rate : 448 Kbps
Channel(s) : 6 channels
Channel positions : Front: L C R, Side: L R, LFE
Sampling rate : 48.0 KHz
Bit depth : 16 bits
Compression mode : Lossy
Stream size : 302 MiB (5%)
Title : Дубляж R5, Союз-Видео @ AC3 5.1 448kbps
Language : Russian
Default : Yes
Forced : No
Audio #3
ID : 3
Format : AC-3
Format/Info : Audio Coding 3
Mode extension : CM (complete main)
Format settings, Endianness : Big
Codec ID : A_AC3
Duration : 1h 34mn
Bit rate mode : Constant
Bit rate : 448 Kbps
Channel(s) : 6 channels
Channel positions : Front: L C R, Side: L R, LFE
Sampling rate : 48.0 KHz
Bit depth : 16 bits
Compression mode : Lossy
Stream size : 302 MiB (5%)
Title : MVO R5, CP-Digital @ AC3 5.1 448kbps
Language : Russian
Default : No
Forced : No
Audio #4
ID : 4
Format : AC-3
Format/Info : Audio Coding 3
Mode extension : CM (complete main)
Format settings, Endianness : Big
Codec ID : A_AC3
Duration : 1h 34mn
Bit rate mode : Constant
Bit rate : 384 Kbps
Channel(s) : 6 channels
Channel positions : Front: L C R, Side: L R, LFE
Sampling rate : 48.0 KHz
Bit depth : 16 bits
Compression mode : Lossy
Stream size : 258 MiB (4%)
Title : MVO LDV @ AC3 5.1 384kbps
Language : Russian
Default : No
Forced : No
Audio #5
ID : 5
Format : AC-3
Format/Info : Audio Coding 3
Mode extension : CM (complete main)
Format settings, Endianness : Big
Codec ID : A_AC3
Duration : 1h 34mn
Bit rate mode : Constant
Bit rate : 384 Kbps
Channel(s) : 6 channels
Channel positions : Front: L C R, Side: L R, LFE
Sampling rate : 48.0 KHz
Bit depth : 16 bits
Compression mode : Lossy
Stream size : 258 MiB (4%)
Title : MVO Домашнее видео @ AC3 5.1 384kbps
Language : Russian
Default : No
Forced : No
Audio #6
ID : 6
Format : AC-3
Format/Info : Audio Coding 3
Mode extension : CM (complete main)
Format settings, Endianness : Big
Codec ID : A_AC3
Duration : 1h 34mn
Bit rate mode : Constant
Bit rate : 448 Kbps
Channel(s) : 6 channels
Channel positions : Front: L C R, Side: L R, LFE
Sampling rate : 48.0 KHz
Bit depth : 16 bits
Compression mode : Lossy
Stream size : 302 MiB (5%)
Title : DVO, Гланц и Королёва @ AC3 5.1 448kbps
Language : Russian
Default : No
Forced : No
Audio #7
ID : 7
Format : AC-3
Format/Info : Audio Coding 3
Mode extension : CM (complete main)
Format settings, Endianness : Big
Codec ID : A_AC3
Duration : 1h 34mn
Bit rate mode : Constant
Bit rate : 192 Kbps
Channel(s) : 2 channels
Channel positions : Front: L R
Sampling rate : 48.0 KHz
Bit depth : 16 bits
Compression mode : Lossy
Stream size : 129 MiB (2%)
Title : MVO, НТВ @ AC3 2.0 192kbps
Language : Russian
Default : No
Forced : No
Audio #8
ID : 8
Format : AC-3
Format/Info : Audio Coding 3
Mode extension : CM (complete main)
Format settings, Endianness : Big
Codec ID : A_AC3
Duration : 1h 34mn
Bit rate mode : Constant
Bit rate : 192 Kbps
Channel(s) : 2 channels
Channel positions : Front: L R
Sampling rate : 48.0 KHz
Bit depth : 16 bits
Compression mode : Lossy
Stream size : 129 MiB (2%)
Title : MVO, РТР @ AC3 2.0 192kbps
Language : Russian
Default : No
Forced : No
Audio #9
ID : 9
Format : AC-3
Format/Info : Audio Coding 3
Mode extension : CM (complete main)
Format settings, Endianness : Big
Codec ID : A_AC3
Duration : 1h 34mn
Bit rate mode : Constant
Bit rate : 192 Kbps
Channel(s) : 2 channels
Channel positions : Front: L R
Sampling rate : 48.0 KHz
Bit depth : 16 bits
Compression mode : Lossy
Stream size : 129 MiB (2%)
Title : AVO, Володарский @ AC3 2.0 192kbps
Language : Russian
Default : No
Forced : No
Audio #10
ID : 10
Format : AC-3
Format/Info : Audio Coding 3
Mode extension : CM (complete main)
Format settings, Endianness : Big
Codec ID : A_AC3
Duration : 1h 34mn
Bit rate mode : Constant
Bit rate : 192 Kbps
Channel(s) : 2 channels
Channel positions : Front: L R
Sampling rate : 48.0 KHz
Bit depth : 16 bits
Compression mode : Lossy
Stream size : 129 MiB (2%)
Title : AVO, Векшин @ AC3 2.0 192kbps
Language : Russian
Default : No
Forced : No
Audio #11
ID : 11
Format : AC-3
Format/Info : Audio Coding 3
Mode extension : CM (complete main)
Format settings, Endianness : Big
Codec ID : A_AC3
Duration : 1h 34mn
Bit rate mode : Constant
Bit rate : 192 Kbps
Channel(s) : 2 channels
Channel positions : Front: L R
Sampling rate : 48.0 KHz
Bit depth : 16 bits
Compression mode : Lossy
Stream size : 129 MiB (2%)
Title : AVO, Гранкин @ AC3 2.0 192kbps
Language : Russian
Default : No
Forced : No
Audio #12
ID : 12
Format : AC-3
Format/Info : Audio Coding 3
Mode extension : CM (complete main)
Format settings, Endianness : Big
Codec ID : A_AC3
Duration : 1h 34mn
Bit rate mode : Constant
Bit rate : 448 Kbps
Channel(s) : 6 channels
Channel positions : Front: L C R, Side: L R, LFE
Sampling rate : 48.0 KHz
Bit depth : 16 bits
Compression mode : Lossy
Stream size : 302 MiB (5%)
Title : Original @ AC3 5.1 448kbps
Language : French
Default : No
Forced : No
Text #13
ID : 13
Format : UTF-8
Codec ID : S_TEXT/UTF8
Codec ID/Info : UTF-8 Plain Text
Title : R5 @ SRT
Language : Russian
Default : No
Forced : No
Text #14
ID : 14
Format : UTF-8
Codec ID : S_TEXT/UTF8
Codec ID/Info : UTF-8 Plain Text
Title : Flexor @ SRT
Language : Russian
Default : No
Forced : No
Text #15
ID : 15
Format : UTF-8
Codec ID : S_TEXT/UTF8
Codec ID/Info : UTF-8 Plain Text
Title : Eng @ SRT
Language : English
Default : No
Forced : No
Text #16
ID : 16
Format : UTF-8
Codec ID : S_TEXT/UTF8
Codec ID/Info : UTF-8 Plain Text
Title : Fre @ SRT
Language : French
Default : No
Forced : No
Menu
00:00:00.000 : en:Start
00:03:13.625 : en:The Chief's Son
00:05:59.499 : en:Tranny Interview
00:07:40.749 : en:Banque de L'Etoile Robbery
00:10:02.666 : en:Two Month Suspension
00:12:31.332 : en:Dinner With Sofia
00:16:18.748 : en:"My Name Is Hishibashi"
00:18:39.415 : en:Welcome to Japan
00:20:15.956 : en:Momo
00:24:35.039 : en:Sole Legatee
00:29:12.372 : en:Yumi
00:32:58.789 : en:The Crematorium
00:39:20.871 : en:Miko's File
00:42:52.704 : en:Yumi's Inheritance
00:46:28.246 : en:Red Alert
00:47:21.745 : en:Goons With Shades
00:51:42.912 : en:Arms & Fashion Show
00:55:16.078 : en:The Nightclub
00:58:31.369 : en:Yakuza Shootout
01:03:49.827 : en:Names & Numbers
01:05:21.702 : en:Like Tigers & Wolves
01:08:34.910 : en:Takanawa aka the Zebra
01:12:13.243 : en:King of Clubs
01:13:52.785 : en:Wasabi
01:16:56.159 : en:Message in Kyoto
01:19:03.742 : en:Making a Withdrawal
01:23:04.950 : en:The Account Is Closed
01:25:21.158 : en:Farewells


Васаби скачать торрент


pb.wtf



Скачать Васаби через торрент http://pic.kartinco.top/images/3/tbvldpqf9u.png Скачать фильм Васаби через торрент бесплантно в хорошем качестве В ролях: Жан Рено, Риоко Хиросуэ, Мишель Мюллер, Кароль Буке, Йоши Оида, Кристиан Синниже, Александр Брик, Жан-Марк Монтальто, Вероник ... 9.9 10 11
Info! Золотая раздача, скачанное не засчитывается.
Торрент: Зарегистрирован [2013-08-21 12:46] · скачан: 89 раз
Статус: √ проверено
Размер: 6.08 GB
Как cкачать? Как скачать Васаби через торрент | qTorrent

% Раздел Тема Автор DL S | L
Фильмы [HD 720p, 1080p] (Хороший звук DUB, MVO) [ 6.46 GB ] Васаби / Wasabi [2001 BDRip-HEVC 1080p ] DUB+MVO+DVO+2xAVO bober100 Скачать
1 | 0
Видео для КПК и Смартфонов [ 500 MB ] Васаби / Wasabi [2001 BDRip / КПК] Skillters Скачать
1 | 0
R.G. Resident & PiratVoice - Фильмы, Видео [ 2.14 GB ] Васаби / Wasabi [2001 HDRip-AVC DUB] schultz Скачать
2 | 0
Фильмы 2001-2005 [ 1.45 GB ] Васаби / Wasabi [2001 HDRip-AVC] DUB [] от R.G. PiratFilms Phoenix Скачать
1 | 0
Фильмы (HD 720p, 1080p) (48-60 fps) [ 10.82 GB ] Васаби / Wasabi [2001 Япония BDRip 1080p / 60 FPS ] Tiberiumsun69 Скачать
1 | 0
Фильмы 2001-2005 [ 3.54 GB ] Васаби / Wasabi [2001 BDRip-AVC MVO лицензия ] metanoia Скачать
1 | 0
Фильмы 2001-2005 [ 1.37 GB ] Васаби / Wasabi [2001 DVDRip] Joup Скачать
1 | 0

28-11-2019 20:33  

Отключить всю рекламу на сайте

    Дорогой пользователь! Огромная просьба, поблагодарите релизера, оцените раздачу и оставьте свои комментарий, если Вы скачали Васаби через торрент бесплатно! Внесите свою лепту в развитие PiratBit!
    Комментировать посты могут только пользователи прошедшие не сложную регистрацию
    Показать сообщения:    

    Васаби через торрент
    Скачать бесплатно Васаби
    Васаби скачать торрент
    Васаби смотреть онлайн
    Cкачать фильм Васаби бесплатно
    Васаби скачать торрент в хорошем качестве
    Васаби смотреть онлайн бесплатно в хорошем качестве


    Вы не можете начинать темы
    Вы не можете отвечать на сообщения
    Вы не можете редактировать свои сообщения
    Вы не можете удалять свои сообщения
    Вы не можете голосовать в опросах
    Вы не можете прикреплять файлы к сообщениям
    Вы можете скачивать файлы