1 сезон

3 сезон

iTunes

1

iTunes

MVO

iTunes

13

1 сезон

RePack

30

Deluxe

pack

Лицензия

ВАЖНО

ИГРА 18+

pack

RePack

MK11

RePack

jed

RePack

fifa19

RePack

RDR2

RePack

NEED FOR SPEED™ PAYBACK

4 сезон

9 сезон

Бесстыжие 9 сезон

Все сериалы

все сериалы на PB.wtf

RePack

FAR CRY 5

Anonymous, добрый вечер, мы катастрофически не успеваем собрать деньги на оплату серверов, помогите нам пожалуйста 5,10,15р., для нас важна любая помощь . В качестве благодарности мы отключим Вам всю рекламу на сайте (укажите свой ник в строку Ваше имя)!

×
  
Magnet ссылка

Беги / Run (Симон Бартесаги / Simone Bartesaghi) [2013, боевик, триллер, мелодрама, DVD5] R5 pb.wtf

Беги через торрент pb.wtf

Размер: 3.91 GB | Добавлен: 7 лет 11 мес. назад | Торрент скачан:84 раза
Скачать  

21-08-2013 16:43 Беги Скачать торрент  


Беги / Run
«Танцуй! Люби! Беги!»
Страна: США
Студия: 224 Entertainment, Intrinsic Value Films
Жанр: боевик, триллер, мелодрама
Год выпуска: 2013
Мировая премьера: 4 июля 2013
Российская премьера: 4 июля 2013, 3D
Дата выхода DVD: 15 августа 2013
Продолжительность: 01:27:09
Перевод: Профессиональный (дублированный) [Лицензия]
Cубтитры: нет
Оригинальная аудиодорожка: нет
Режиссер: Симон Бартесаги / Simone Bartesaghi
В ролях: Уильям Моусли, Адриан Пасдар, Келси Чоу, Крейг Хенингсен, Эдоардо Баллерини, Эрик Робертс, Сол Стайн, Джон Фреда, Джозеф Перрино, Альберт Валладарес...
Описание: В нью-йоркской школе появляется таинственный ученик по имени Дэниэл. Он виртуозно владеет паркуром и сразу находит себе друзей по интересам, с которыми он может «летать» над городом, пока тот спит. Среди новых друзей прекрасная Эмили, которая безоглядно влюбляется в новичка. Но откуда приехал Дэниэл? Кто он такой? Где он жил раньше? Ведь у него полно секретов, которые он не доверяет своим друзьям. Но тайны прошлого не дремлют и Дэниэлу придётся бороться не только за свою жизнь, но и за жизнь своих новых друзей.
Бонусы: нет

Релиз группы:
Качество: DVD5 R5
Формат: DVD-Video
Видео кодек: MPEG2
Аудио кодек: AC3
Видео: PAL 16:9 (720x576(0.548)) MPEG Video, 25,000 кадр/сек, 5679 Кбит/сек
Аудио: Russian (Dolby AC3, 6 ch) 448 Кбит/сек, 48,0 КГц



Title: Begi.2013.DVD5
Size: 3.91 Gb ( 4 098 730,00 KBytes ) - DVD-5
Enabled regions: 1, 2, 3, 4, 5, 6, 7, 8

VTS_01 :
Play Length: 00:00:19
Video: PAL 16:9 (720x576) VBR, Auto Pan&Scan, Auto Letterboxed
Audio:
Not specified (Dolby AC3, 2 ch)

VTS_02 :
Play Length: 01:27:09
Video: PAL 16:9 (720x576) VBR, Auto Letterboxed
Audio:
Not specified (Dolby AC3, 6 ch)

* Menus Information *

VIDEO_TS Menu
Video:
PAL 16:9 (720x576) VBR
Auto Pan&Scan, Auto Letterboxed
Russian Language Unit :
Title Menu

VTS_01 Menu
Video:
PAL 16:9 (720x576) VBR
Auto Pan&Scan, Auto Letterboxed
Audio:
Not specified (Dolby AC3, 6 ch)
Russian Language Unit :
Root Menu

VTS_02 Menu
Video:
PAL 4:3 (720x576) VBR
Russian Language Unit :
Root Menu
Общее
Полное имя : M:Новинки 2013Begi.2013.DVD5VIDEO_TSVTS_02_1.VOB
Формат : MPEG-PS
Размер файла : 1024 Мбайт
Продолжительность : 22 м.
Режим общего битрейта : Переменный
Общий поток : 6251 Кбит/сек

Видео
Идентификатор : 224 (0xE0)
Формат : MPEG Video
Версия формата : Version 2
Профиль формата : Main@Main
Параметр BVOP формата : Да
Параметр матрицы формата : Выборочная
Параметр GOP формата : M=3, N=15
Продолжительность : 22 м.
Вид битрейта : Переменный
Битрейт : 5679 Кбит/сек
Максимальный битрейт : 9000 Кбит/сек
Ширина : 720 пикселей
Высота : 576 пикселей
Соотношение сторон : 16:9
Частота кадров : 25,000 кадров/сек
Стандарт вещания : PAL
Цветовое пространство : YUV
Субдискретизация насыщенности : 4:2:0
Битовая глубина : 8 бит
Тип развёртки : Чересстрочная
Порядок развёртки : Верхнее поле первое
Метод сжатия : С потерями
Бит/(Пиксели*Кадры) : 0.548
TimeCode_FirstFrame : 00:00:00:00
TimeCode_Source : Group of pictures header
Размер потока : 930 Мбайт (91%)

Аудио
Идентификатор : 189 (0xBD)-128 (0x80)
Формат : AC-3
Формат/Информация : Audio Coding 3
Расширение режима : CM (complete main)
Параметр Endianness формата : Big
Режим смешивания : DVD-Video
Продолжительность : 22 м.
Вид битрейта : Постоянный
Битрейт : 448 Кбит/сек
Каналы : 6 каналов
Расположение каналов : Front: L C R, Side: L R, LFE
Частота : 48,0 КГц
Битовая глубина : 16 бит
Метод сжатия : С потерями
Размер потока : 73,4 Мбайт (7%)










pb.wtf



Скачать Беги через торрент http://s017.radikal.ru/i438/1308/9f/d73d947ca110.jpg Скачать фильм Беги через торрент бесплантно в хорошем качестве Описание: В нью-йоркской школе появляется таинственный ученик по имени Дэниэл. Он виртуозно владеет паркуром и сразу находит себе друзей по ... 9 10 5
Info! Золотая раздача, скачанное не засчитывается.
Торрент: Зарегистрирован [2013-08-21 16:43] · скачан: 84 раз
Статус: √ проверено
Размер: 3.91 GB
Как cкачать? Как скачать Беги через торрент | UTorrent

% Раздел Тема Автор DL S | L
Фильмы (DVD фильмы) [ 5.54 GB ] Хватай и беги / Hit and Run [2012 DVD9] R5 voovaz Скачать
1 | 0

28-11-2019 20:33  

Отключить всю рекламу на сайте

    Дорогой пользователь! Огромная просьба, поблагодарите релизера, оцените раздачу и оставьте свои комментарий, если Вы скачали Беги через торрент бесплатно! Внесите свою лепту в развитие PiratBit!
    Комментировать посты могут только пользователи прошедшие не сложную регистрацию
    Показать сообщения:    

    Беги через торрент
    Скачать бесплатно Беги
    Беги скачать торрент
    Беги смотреть онлайн
    Cкачать фильм Беги бесплатно
    Беги скачать торрент в хорошем качестве
    Беги смотреть онлайн бесплатно в хорошем качестве


    Вы не можете начинать темы
    Вы не можете отвечать на сообщения
    Вы не можете редактировать свои сообщения
    Вы не можете удалять свои сообщения
    Вы не можете голосовать в опросах
    Вы не можете прикреплять файлы к сообщениям
    Вы можете скачивать файлы