Ссылка на приватное зеркало нашего сайта всего за 1$. Внимание количество ограничено!!!

2 сезон

iTunes

1 сезон

1

iTunes

iTunes

iTunes

1 сезон

RePack

30

ИГРА 18+

pack

ВАЖНО

!!Акция!!

Alien_RageХит недели

RePack

MK11
pack

Забери бонус

RePack

jed

!!Акция!!

Alien_Rage

RePack

fifa19

RePack

Assassins Creed: Odyssey

RePack

NEED FOR SPEED™ PAYBACK

4 сезон

9 сезон

Бесстыжие 9 сезон

Все сериалы

все сериалы на PB.wtf

RePack

FAR CRY 5
  

2012 / 2012 (Роланд Эммерих /Roland Emmerich) [2009 г., фантастика, трагедия, катастрофа, драма, BDRip 720p, DUB,Original Eng,SUB] pb.wtf

2012 через торрент pb.wtf

Размер: 9.24 GB | Добавлен: 7 лет 2 мес. назад | Торрент скачан:80 раз
Скачать  

22-08-2013 06:16 2012 Скачать торрент  

2012 / 2012«Узнай правду... если сможешь!»
Год выпуска: 2009
Страна: США, Канада
Жанр: фантастика, трагедия, катастрофа, драма,
Продолжительность: 02:37:49
Перевод: Дубляж
Субтитры: русские,англ.

Режиссер: Роланд Эммерих /Roland Emmerich/

Бюджет: $200 000 000
Кассовые сборы в мире 769,6 мнл





В ролях: Джон Кьюсак, Вуди Харрельсон, Тэнди Ньютон, Чиветел Иджиофор, Златко Бурич, Дэнни Гловер, Аманда Пит, Оливер Платт, Томас МакКарти, Хенри О, Рон Селмур, Райан МакДоналд, Патрик Бошо, Лайэм Джеймс, Блу Манкума, Джими Мистри, Йоханн Урб,

: Согласно календарю индейцев Майя, в 2012 году планеты солнечной системы окажутся на одной линии друг с другом, что приведет к глобальным природным катаклизмам: сильнейшие землетрясения, цунами и извержения вулканов превратят страны и целые континенты в руины. Недавно ученые подтвердили, что этот миф может стать реальностью.

Качество: BDRip 720p
Формат: MKV
Видео кодек: AVC
Аудио кодек: AC3 DTS
Видео: 1280x534, 6232 kbps, 23.976 fps
Аудио#1: Русский AC3 5.1, 48 KHz, 448 kbps
Аудио#2: Английский DTS 5.1, 48 KHz, 1536 kbps
Аудио#3: Английский AC3 2.0, 48 KHz, 192 kbps (комментарии режиссёра)




General
Complete name : 2012.2009.BD.Rip.720p.h264.Rus.Eng.mkv
Format : Matroska
File size : 9.24 GiB
Duration : 2h 37mn
Overall bit rate : 8 382 Kbps
Encoded date : UTC 2010-01-20 08:07:16
Writing application : mkvmerge v3.0.0 ('Hang up your Hang-Ups') built on Dec 12 2009 15:20:35
Writing library : libebml v0.7.9 + libmatroska v0.8.1

Video
ID : 1
Format : AVC
Format/Info : Advanced Video Codec
Format profile : High@L4.1
Format settings, CABAC : Yes
Format settings, ReFrames : 10 frames
Muxing mode : Container profile=Unknown@4.1
Codec ID : V_MPEG4/ISO/AVC
Duration : 2h 37mn
Bit rate : 6 065 Kbps
Nominal bit rate : 6 232 Kbps
Width : 1 280 pixels
Height : 534 pixels
Display aspect ratio : 2.35:1
Frame rate : 23.976 fps
Resolution : 8 bits
Colorimetry : 4:2:0
Scan type : Progressive
Bits/(Pixel*Frame) : 0.370
Stream size : 6.68 GiB (72%)
Writing library : x264 core 68 r1179M 96e2229
Encoding settings : cabac=1 / ref=10 / deblock=1:-3:-3 / analyse=0x3:0x133 / me=esa / subme=9 / psy_rd=0.9:0.0 / mixed_ref=1 / me_range=48 / chroma_me=1 / trellis=2 / 8x8dct=1 / cqm=0 / deadzone=21,11 / chroma_qp_offset=-4 / threads=12 / nr=0 / decimate=1 / mbaff=0 / bframes=5 / b_pyramid=1 / b_adapt=2 / b_bias=0 / direct=3 / wpredb=1 / keyint=250 / keyint_min=25 / scenecut=40 / rc=2pass / bitrate=6232 / ratetol=1.0 / qcomp=0.60 / qpmin=10 / qpmax=51 / qpstep=4 / cplxblur=20.0 / qblur=0.5 / ip_ratio=1.40 / pb_ratio=1.30 / aq=1:0.90
Language : English

Audio #1
ID : 2
Format : AC-3
Format/Info : Audio Coding 3
Codec ID : A_AC3
Duration : 2h 37mn
Bit rate mode : Constant
Bit rate : 448 Kbps
Channel(s) : 6 channels
Channel positions : Front: L C R, Surround: L R, LFE
Sampling rate : 48.0 KHz
Stream size : 506 MiB (5%)
Title : AC3 5.1 448 kbps
Language : Russian

Audio #2
ID : 3
Format : DTS
Format/Info : Digital Theater Systems
Codec ID : A_DTS
Duration : 2h 37mn
Bit rate mode : Constant
Bit rate : 1 510 Kbps
Channel(s) : 6 channels
Channel positions : Front: L C R, Surround: L R, LFE
Sampling rate : 48.0 KHz
Resolution : 24 bits
Stream size : 1.66 GiB (18%)
Title : DTS 5.1 1536 kbps
Language : English

Audio #3
ID : 4
Format : AC-3
Format/Info : Audio Coding 3
Codec ID : A_AC3
Duration : 2h 37mn
Bit rate mode : Constant
Bit rate : 192 Kbps
Channel(s) : 2 channels
Channel positions : L R
Sampling rate : 48.0 KHz
Stream size : 217 MiB (2%)
Title : Commentary with Director AC3 2.0 192 kbps
Language : English

Text #1
ID : 5
Format : UTF-8
Codec ID : S_TEXT/UTF8
Codec ID/Info : UTF-8 Plain Text
Language : Russian

Text #2
ID : 6
Format : UTF-8
Codec ID : S_TEXT/UTF8
Codec ID/Info : UTF-8 Plain Text
Language : English

Text #3
ID : 7
Format : UTF-8
Codec ID : S_TEXT/UTF8
Codec ID/Info : UTF-8 Plain Text
Title : Tol'ko nadpisi
Language : Russian


2012 скачать торрент


pb.wtf



Скачать 2012 через торрент http://pic.kartinco.top/images/3/pkaofinf97.jpg Скачать фильм 2012 через торрент бесплантно в хорошем качестве В ролях: Джон Кьюсак, Вуди Харрельсон, Тэнди Ньютон, Чиветел Иджиофор, Златко Бурич, Дэнни Гловер, Аманда Пит, Оливер Платт, Томас ... 8.8 10 13
Info! Золотая раздача, скачанное не засчитывается.
Торрент: Зарегистрирован [2013-08-22 06:16] · скачан: 80 раз
Статус: √ проверено
Размер: 9.24 GB
Как cкачать? Как скачать 2012 через торрент | qTorrent

% Раздел Тема Автор DL S | L
Антивирусы [ 1.94 GB ] ESET NOD32 Antivirus 4.2.71 + ESET Smart Security 4.2.71 + ESET Remote Administrator 4.0.138 + ESET Authentication Server 1.0.23.0 + Utilities [AIO] [ОБНОВЛЯЕМАЯ] [Released: 22.01.2012 ML] Kosmopolis Скачать
1 | 0
Windows 7 [ 7 MB ] Полезные советы для Windows 7 от Nizaury v.5.55. Encyclopedia version x86&x64 [13.09.2012 rus] Kosmopolis Скачать
3 | 0
RTS (стратегии в реальном времени) [ 5.27 GB ] Cities XL 2012 2011[лицензияРусск​ий/ENG/MULTi11 Strategy / 3D] Shmel Скачать
1 | 0
САПР [ 3.5 GB ] Autodesk AutoCAD 2012 SP1 x86-x64 RUS-ENG Konondoyl Скачать
3 | 0
Спортивные симуляторы [ 4.11 GB ] Pro Evolution Soccer 2012 [Lossless RePackRU/ENSport / 3D] от GUGUCHA =Чувак= Скачать
1 | 0
Аниме [DVDrip, WEB-DLRip, HDrip] [ 105.51 GB ] Блич [ТВ] / Bleach [1-366 из 366][RUSRUS JAP][2004-2012 сёнэн DVDRip/DTVRip] XITMAH Скачать
1 | 0
Архив (Metal) [ 2.25 GB ] Cradle Of Filth -Дискография MP3 320 kbit MrKuzj Скачать
1 | 0

28-11-2019 20:33  

Отключить всю рекламу на сайте

    Дорогой пользователь! Огромная просьба, поблагодарите релизера, оцените раздачу и оставьте свои комментарий, если Вы скачали 2012 через торрент бесплатно! Внесите свою лепту в развитие PiratBit!
    Комментировать посты могут только пользователи прошедшие не сложную регистрацию
    Показать сообщения:    

    2012 через торрент
    Скачать бесплатно 2012
    2012 скачать торрент
    2012 смотреть онлайн
    Cкачать фильм 2012 бесплатно
    2012 скачать торрент в хорошем качестве
    2012 смотреть онлайн бесплатно в хорошем качестве


    Вы не можете начинать темы
    Вы не можете отвечать на сообщения
    Вы не можете редактировать свои сообщения
    Вы не можете удалять свои сообщения
    Вы не можете голосовать в опросах
    Вы не можете прикреплять файлы к сообщениям
    Вы можете скачивать файлы