Ссылка на приватное зеркало нашего сайта всего за 1$. Внимание количество ограничено!!!

2 сезон

iTunes

1 сезон

1

iTunes

iTunes

iTunes

1 сезон

RePack

30

ИГРА 18+

pack

ВАЖНО

!!Акция!!

Alien_RageХит недели

RePack

MK11
pack

Забери бонус

RePack

jed

!!Акция!!

Alien_Rage

RePack

fifa19

RePack

Assassins Creed: Odyssey

RePack

NEED FOR SPEED™ PAYBACK

4 сезон

9 сезон

Бесстыжие 9 сезон

Все сериалы

все сериалы на PB.wtf

RePack

FAR CRY 5
  

Армагеддон / Armageddon (Майкл Бэй / Michael Bay) [1998 г., фантастика, боевик, триллер, приключения, BDRip 1080p, DUB, MVO, Original, SUB] pb.wtf

Армагеддон через торрент pb.wtf

Размер: 18.45 GB | Добавлен: 7 лет 2 мес. назад | Торрент скачан:26 раз
Скачать  

23-08-2013 05:13 Армагеддон Скачать торрент  

Армагеддон / Armageddon«Во имя любви. Во имя чести. Во имя человечества.»Год выпуска: 1998
Страна: США
Жанр: фантастика, боевик, триллер, приключения
Продолжительность: 02:30:50
Перевод: Профессиональный (полное дублирование) НТВ+
Профессиональный (многоголосный закадровый) Superbit
Субтитры: русские,англ.


Режиссер: Майкл Бэй / Michael Bay

Бюджет: $140 000 000

Сборы в мире $553 709 788


В ролях: Брюс Уиллис, Билли Боб Торнтон, Бен Аффлек, Лив Тайлер, Уилл Пэттон, Стив Бушеми, Уильям Фихтнер, Оуэн Уилсон, Майкл Кларк Дункан, Петер Стормаре,

: Тень гигантского астероида легла на Землю. До рокового столкновения остаются считанные дни. Наступает Армагеддон, трагический финал мировой истории. Чтобы предотвратить катастрофу, необходимо чудо — или совместные усилия лучших из лучших вместе с технологической мощью всего созданного человеком. Сможет ли горстка людей противостоять вселенской стихии?..

Качество: BDRip 1080p
Формат: MKV
Видео кодек: AVC
Аудио кодек: AC3 DTS
Видео: 1920x800,2.40:1 ~14050 kbps 23.976 fps
Аудио#1: Русский AC3 5.1, 48 kHz, 448 kbps
Аудио#2: Русский DTS 5.1, 48 kHz, 1536 kbps
Аудио#3: Английский DTS 5.1, 48 kHz, 1536 kbps




E:киноАрмагеддон ArmageddonArmageddon.1998.BluRay.1080p.AC3.DTS.RUS.ENG.x264-CHD.mkv
General
Unique ID : 248434293439150929267249212865948286563 (0xBAE6B459C3FF7D76944E4171E239FE63)
Complete name : E:киноАрмагеддон ArmageddonArmageddon.1998.BluRay.1080p.AC3.DTS.RUS.ENG.x264-CHD.mkv
Format : Matroska
Format version : Version 2
File size : 18.4 GiB
Duration : 2h 30mn
Overall bit rate : 17.5 Mbps
Encoded date : UTC 2010-04-20 22:29:19
Writing application : mkvmerge v3.3.0 ('Language') built on Mar 24 2010 14:59:24
Writing library : libebml v0.8.0 + libmatroska v0.9.0
Video #1
ID : 1
Format : AVC
Format/Info : Advanced Video Codec
Format profile : High@L4.1
Format settings, CABAC : Yes
Format settings, ReFrames : 5 frames
Codec ID : V_MPEG4/ISO/AVC
Duration : 2h 30mn
Bit rate : 14.1 Mbps
Width : 1 920 pixels
Height : 800 pixels
Display aspect ratio : 2.40:1
Frame rate mode : Constant
Frame rate : 23.976 fps
Color space : YUV
Chroma subsampling : 4:2:0
Bit depth : 8 bits
Scan type : Progressive
Bits/(Pixel*Frame) : 0.382
Stream size : 14.4 GiB (78%)
Title : Armageddon.1998.BluRay.1080p.DTS.2Audio.x264-CHD
Writing library : x264 core 88 r1471 1144615
Encoding settings : cabac=1 / ref=5 / deblock=1:-3:-3 / analyse=0x3:0x113 / me=umh / subme=10 / psy=1 / psy_rd=1.05:0.10 / mixed_ref=1 / me_range=48 / chroma_me=1 / trellis=2 / 8x8dct=1 / cqm=2 / deadzone=21,11 / fast_pskip=0 / chroma_qp_offset=-2 / threads=12 / sliced_threads=0 / nr=0 / decimate=1 / mbaff=0 / constrained_intra=0 / bframes=3 / b_pyramid=2 / b_adapt=2 / b_bias=0 / direct=3 / wpredb=1 / wpredp=2 / keyint=250 / keyint_min=25 / scenecut=40 / intra_refresh=0 / rc_lookahead=60 / rc=2pass / mbtree=1 / bitrate=14050 / ratetol=2.0 / qcomp=0.70 / qpmin=10 / qpmax=51 / qpstep=4 / cplxblur=20.0 / qblur=0.5 / vbv_maxrate=50000 / vbv_bufsize=50000 / ip_ratio=1.40 / aq=1:1.00
Language : English
Default : Yes
Forced : No
Audio #2
ID : 2
Format : AC-3
Format/Info : Audio Coding 3
Mode extension : CM (complete main)
Format settings, Endianness : Big
Codec ID : A_AC3
Duration : 2h 30mn
Bit rate mode : Constant
Bit rate : 448 Kbps
Channel(s) : 6 channels
Channel positions : Front: L C R, Side: L R, LFE
Sampling rate : 48.0 KHz
Bit depth : 16 bits
Compression mode : Lossy
Stream size : 483 MiB (3%)
Title : Dub AC3 5.1 @ 448 kbps [NTV+]
Language : Russian
Default : Yes
Forced : No
Audio #3
ID : 3
Format : DTS
Format/Info : Digital Theater Systems
Mode : 16
Format settings, Endianness : Big
Codec ID : A_DTS
Duration : 2h 30mn
Bit rate mode : Constant
Bit rate : 1 510 Kbps
Channel(s) : 6 channels
Channel positions : Front: L C R, Side: L R, LFE
Sampling rate : 48.0 KHz
Bit depth : 24 bits
Compression mode : Lossy
Stream size : 1.59 GiB (9%)
Title : MVO DTS 5.1 @ 1536 kbps [Superbit]
Language : Russian
Default : No
Forced : No
Audio #4
ID : 4
Format : DTS
Format/Info : Digital Theater Systems
Mode : 16
Format settings, Endianness : Big
Codec ID : A_DTS
Duration : 2h 30mn
Bit rate mode : Constant
Bit rate : 1 509 Kbps
Channel(s) : 6 channels
Channel positions : Front: L C R, Side: L R, LFE
Sampling rate : 48.0 KHz
Bit depth : 24 bits
Compression mode : Lossy
Stream size : 1.59 GiB (9%)
Title : DTS 5.1 @ 1536 kbps
Language : English
Default : No
Forced : No
Text #5
ID : 5
Format : UTF-8
Codec ID : S_TEXT/UTF8
Codec ID/Info : UTF-8 Plain Text
Language : Russian
Default : No
Forced : No
Text #6
ID : 6
Format : UTF-8
Codec ID : S_TEXT/UTF8
Codec ID/Info : UTF-8 Plain Text
Language : English
Default : No
Forced : No


Армагеддон скачать торрент


pb.wtf



Скачать Армагеддон через торрент http://pic.kartinco.top/images/3/h33jmflwh9.jpg Скачать фильм Армагеддон через торрент бесплантно в хорошем качестве В ролях: Брюс Уиллис, Билли Боб Торнтон, Бен Аффлек, Лив Тайлер, Уилл Пэттон, Стив Бушеми, Уильям Фихтнер, Оуэн Уилсон, Майкл Кларк Дункан, ... 8.7 10 7
Info! Золотая раздача, скачанное не засчитывается.
Торрент: Зарегистрирован [2013-08-23 05:13] · скачан: 26 раз
Статус: √ проверено
Размер: 18.45 GB
Как cкачать? Как скачать Армагеддон через торрент | qTorrent

% Раздел Тема Автор DL S | L
Фильмы до 2000 г. [ 1.45 GB ] Армагеддон / Armageddon [1998 HDRip] DOMINION Скачать
1 | 0
Фильмы [HD 720p, 1080p] (Хороший звук DUB, MVO) [ 8.39 GB ] Армагеддон / Armageddon [1998 BDRip 1080p HEVC ()] Мичман37 Скачать
3 | 0
Фильмы [HD 720p, 1080p] (Хороший звук DUB, MVO) [ 6.78 GB ] Чернокнижник 2: Армагеддон / Warlock: The Armageddon [1993 BDRip-HEVC 1080p ] DUB+2xMVO+3xAVO bober100 Скачать
1 | 0
Фильмы с авторской озвучкой [ 2.19 GB ] Армагеддон / Armageddon [1998 BDRip] 2x[AVO] killermax2013 Скачать
1 | 0
Фильмы (HD 720p, 1080p) (48-60 fps) [ 7.21 GB ] Чернокнижник 2: Армагеддон / Warlock: The Armageddon [1993 BDRip 720p by mimok Dub 2 x MVO 3 x AVO] 60fps mimok Скачать
1 | 0
Фильмы до 2000 г. [ 2.8 GB ] Армагеддон / Armageddon [1998 BDRip-AVC] DUB+MVO bober100 Скачать
1 | 1
Фильмы [HD 720p, 1080p] (Хороший звук DUB, MVO) [ 11.86 GB ] Чернокнижник 2: Армагеддон / Warlock: The Armageddon [1993 BDRip 1080p by msltel] DUB 2 x MVO 3 x AVO msltel Скачать
1 | 0

28-11-2019 20:33  

Отключить всю рекламу на сайте

13-07-2017 10:48 Армагеддон Скачать торрент  

станьте на раздачу , плизpb.wtf



    Дорогой пользователь! Огромная просьба, поблагодарите релизера, оцените раздачу и оставьте свои комментарий, если Вы скачали Армагеддон через торрент бесплатно! Внесите свою лепту в развитие PiratBit!
    Комментировать посты могут только пользователи прошедшие не сложную регистрацию
    Показать сообщения:    

    Армагеддон через торрент
    Скачать бесплатно Армагеддон
    Армагеддон скачать торрент
    Армагеддон смотреть онлайн
    Cкачать фильм Армагеддон бесплатно
    Армагеддон скачать торрент в хорошем качестве
    Армагеддон смотреть онлайн бесплатно в хорошем качестве


    Вы не можете начинать темы
    Вы не можете отвечать на сообщения
    Вы не можете редактировать свои сообщения
    Вы не можете удалять свои сообщения
    Вы не можете голосовать в опросах
    Вы не можете прикреплять файлы к сообщениям
    Вы можете скачивать файлы