2 сезон

iTunes

MVO

1

2 сезон

iTunes

iTunes

1 сезон

RePack

30

Новинка

ВАЖНО

ИГРА 18+

pack

RePack

MK11
pack

Легкие деньги

RePack

jed

RePack

fifa19

RePack

RDR2

RePack

NEED FOR SPEED™ PAYBACK

4 сезон

9 сезон

Бесстыжие 9 сезон

Все сериалы

все сериалы на PB.wtf

RePack

FAR CRY 5

Anonymous, добрый день, мы не успеваем собрать деньги на оплату серверов за декабрь и январь, помогите нам пожалуйста в это трудное время. В качестве благодарности мы отключим Вам всю рекламу на сайте (укажите свой ник в строку Ваше имя)!

×
  
Magnet ссылка

Железный человек 3 в 3D / Iron Man 3 in 3D (Шейн Блэк) [2013 г., фантастика, боевик, приключения, BDRip 1080p, Дубляж, лицензия] Анаглиф (Дюбуа) pb.wtf

Железный человек 3 в 3D через торрент pb.wtf

Размер: 9.67 GB | Добавлен: 7 лет 4 мес. назад | Торрент скачан:208 раз
Скачать  

23-08-2013 14:07 Железный человек 3 в 3D Скачать торрент  

Железный человек 3 в 3D/ Iron Man 3 in 3D
Год выпуска: 2013
Страна: США, Китай (Marvel Studios, Paramount Pictures, DMG Entertainment)
Жанр: фантастика, боевик, приключения,
Продолжительность: 02:10:33
Перевод: Дубляж, Лицензия
Субтитры:
Вшитые (softsub):
#1 - Русские Форсированные (включены по умолчанию)
#2 - Украинские Форсированные

Режиссер: Шейн Блэк
Продюссер: Кевин Файги, Виктория Алонсо, Митчелл Белл
Сценарий: Дрю Пирс, Шейн Блэк, Уоррен Эллис

Бюджет: $200 000 000
Премьера в мире: 18 апреля 2013



Роли исполняли (дублировали):
Tony Stark - Роберт Дауни мл. (Владимир Зайцев)
Pepper Potts - Гвинет Пэлтроу (Инга Сметанина)
Полковник James Rhodes - Дон Чидл (Михаил Тихонов)
Aldrich Killian - Гай Пирс (Денис Некрасов)
The Mandarin - Бен Кингсли (Юрий Меншагин)
Savin - Джеймс Бэдж Дэйл (Алексей Черных)
Maya Hansen - Ребекка Холл (Ирина Киреева)
Harley Keener - Тай Симпкинс (Дениз Озкан)
Президент Ellis - Уильям Сэдлер (Владимир Рыбальченко)
Happy Hogan - Джон Фавро (Артем Маликов)
Brandt - Стефани Зостак (Елена Шульман)
Jarvis (озвучка) - Пол Беттани (Григорий Перель)
Миссис Davis - Дейл Дикки (Наталья Корчагина)
Вице-президент Rodriguez - Мигель Феррер (Рифат Сифулин)
Wu Jiaqi - Фань Бинбин
Ho Yinsen - Шон Тоуб (Василий Дахненко)
Bruce Banner - Марк Руффало (Алексей Мясников),

Описание: Когда мир Старка рушится на его глазах по вине неизвестных противников, Тони жаждет найти виновных и свести с ними счеты. Оказавшись в безвыходной ситуации, Старк может рассчитывать только на себя и свою изобретательность, чтобы защитить тех, кто ему дорог. Это становится настоящим испытанием для героя, которому придется не только сражаться с коварным врагом, но и разобраться в себе, чтобы найти ответ на вопрос, который давно его тревожит: что важнее — человек или костюм?

Доп. информация: Формат 3D: Анаглиф (Дюбуа)



Качество: BDRip 1080p
Формат: MKV
Видео кодек: H.264
Аудио кодек: AC3
Видео: AVC / 23,976 fps / 1920х1080p / 8923 Kbps, (0.179 bit/pixel)
Аудио#1: Русский / AC3 / 48 KHz / 5.1 ch / 640 Kbps (Дубляж - BD 3D)
Аудио#2: Украинский / AC3 / 48 KHz / 2.0 ch / 192 Kbps (Дубляж - iTunes)
Аудио#3: Английский / AC3 / 48 KHz / 5.1 ch / 640 Kbps (Original)



скриншот   скриншот   скриншот   скриншот   скриншот   скриншот  
Общее
Уникальный идентификатор : 248291158223639863147874759502009665461 (0xBACB233D5AD32304A81620F8F7FB07B5)
Полное имя : D:DVDIron.Man.3(3D)2013(Anaglyph_Dubois).mkv
Формат : Matroska
Версия формата : Version 4 / Version 2
Размер файла : 9,67 Гбайт
Продолжительность : 2 ч. 10 м.
Общий поток : 10,6 Мбит/сек
Название фильма : Железный человек 3 / Iron Man 3 (3D) 2013 (Anaglyph_Dubois)
Дата кодирования : UTC 2013-08-23 09:59:13
Программа кодирования : mkvmerge v6.2.0 ('Promised Land') built on Apr 28 2013 12:22:01
Библиотека кодирования : libebml v1.3.0 + libmatroska v1.4.0

Видео
Идентификатор : 1
Формат : AVC
Формат/Информация : Advanced Video Codec
Профиль формата : Baseline@L4.0
Параметр CABAC формата : Нет
Параметр ReFrames формата : 1 кадр
Идентификатор кодека : V_MPEG4/ISO/AVC
Продолжительность : 2 ч. 10 м.
Битрейт : 8923 Кбит/сек
Ширина : 1920 пикселей
Высота : 1080 пикселей
Соотношение сторон : 16:9
Режим частоты кадров : Постоянный
Частота кадров : 23,976 кадра/сек
Цветовое пространство : YUV
Субдискретизация насыщенности : 4:2:0
Битовая глубина : 8 бит
Тип развёртки : Прогрессивная
Бит/(Пиксели*Кадры) : 0.179
Размер потока : 8,14 Гбайт (84%)
Заголовок : IronMan3(3D)2013(Anaglyph_Dubois).mkv
Библиотека кодирования : x264 core 112 r1834bm a51816a
Настройки программы : cabac=0 / ref=1 / deblock=0:0:0 / analyse=0:0 / me=dia / subme=0 / psy=1 / psy_rd=0.00:0.00 / mixed_ref=0 / me_range=16 / chroma_me=1 / trellis=0 / 8x8dct=0 / cqm=0 / deadzone=21,11 / fast_pskip=1 / chroma_qp_offset=0 / threads=2 / sliced_threads=1 / slices=2 / nr=0 / decimate=1 / interlaced=0 / constrained_intra=0 / bframes=0 / weightp=0 / keyint=250 / keyint_min=23 / scenecut=0 / intra_refresh=0 / rc=crf / mbtree=0 / crf=19.8 / qcomp=0.60 / qpmin=0 / qpmax=51 / qpstep=4 / crop_rect=0,0,0,0 / ip_ratio=1.40 / aq=0
Язык : English
Default : Да
Forced : Нет

Аудио #1
Идентификатор : 2
Формат : AC-3
Формат/Информация : Audio Coding 3
Расширение режима : CM (complete main)
Параметр Endianness формата : Big
Идентификатор кодека : A_AC3
Продолжительность : 2 ч. 10 м.
Вид битрейта : Постоянный
Битрейт : 640 Кбит/сек
Каналы : 6 каналов
Расположение каналов : Front: L C R, Side: L R, LFE
Частота : 48,0 КГц
Битовая глубина : 16 бит
Метод сжатия : С потерями
Размер потока : 598 Мбайт (6%)
Заголовок : Дубляж - BD 3D
Язык : Russian
Default : Да
Forced : Нет

Аудио #2
Идентификатор : 3
Формат : AC-3
Формат/Информация : Audio Coding 3
Расширение режима : CM (complete main)
Параметр Endianness формата : Big
Идентификатор кодека : A_AC3
Продолжительность : 2 ч. 10 м.
Вид битрейта : Постоянный
Битрейт : 192 Кбит/сек
Каналы : 2 канала
Расположение каналов : Front: L R
Частота : 48,0 КГц
Битовая глубина : 16 бит
Метод сжатия : С потерями
Размер потока : 179 Мбайт (2%)
Заголовок : Дубляж - iTunes
Язык : Ukrainian
Default : Нет
Forced : Нет

Аудио #3
Идентификатор : 4
Формат : AC-3
Формат/Информация : Audio Coding 3
Расширение режима : CM (complete main)
Параметр Endianness формата : Big
Идентификатор кодека : A_AC3
Продолжительность : 2 ч. 10 м.
Вид битрейта : Постоянный
Битрейт : 640 Кбит/сек
Каналы : 6 каналов
Расположение каналов : Front: L C R, Side: L R, LFE
Частота : 48,0 КГц
Битовая глубина : 16 бит
Метод сжатия : С потерями
Размер потока : 598 Мбайт (6%)
Заголовок : Original
Язык : English
Default : Нет
Forced : Нет

Текст #1
Идентификатор : 5
Формат : UTF-8
Идентификатор кодека : S_TEXT/UTF8
Идентификатор кодека/Информация : UTF-8 Plain Text
Заголовок : Форсированные
Язык : Russian
Default : Да
Forced : Нет

Текст #2
Идентификатор : 6
Формат : UTF-8
Идентификатор кодека : S_TEXT/UTF8
Идентификатор кодека/Информация : UTF-8 Plain Text
Заголовок : Форсированные
Язык : Ukrainian
Default : Нет
Forced : Нет

pb.wtf



Скачать Железный человек 3 в 3D через торрент http://pic.kartinco.top/images/3/29ntaamhji.jpg Скачать фильм Железный человек 3 в 3D через торрент бесплантно в хорошем качестве Описание: Когда мир Старка рушится на его глазах по вине неизвестных противников, Тони жаждет найти виновных и свести с ними счеты. ... 9.9 10 8
Info! Золотая раздача, скачанное не засчитывается.
Торрент: Зарегистрирован [2013-08-23 14:07] · скачан: 208 раз
Статус: √ проверено
Размер: 9.67 GB
Как cкачать? Как скачать Железный человек 3 в 3D через торрент | UTorrent

% Раздел Тема Автор DL S | L
3D Фильмы [ 8.28 GB ] Железный человек 3 в 3D / Iron Man 3 in 3D [2013 BDRip 1080p лицензия] Анаглиф slaventi-69 Скачать
1 | 0

28-11-2019 20:33  

Отключить всю рекламу на сайте

    Дорогой пользователь! Огромная просьба, поблагодарите релизера, оцените раздачу и оставьте свои комментарий, если Вы скачали Железный человек 3 в 3D через торрент бесплатно! Внесите свою лепту в развитие PiratBit!
    Комментировать посты могут только пользователи прошедшие не сложную регистрацию
    Показать сообщения:    

    Железный человек 3 в 3D через торрент
    Скачать бесплатно Железный человек 3 в 3D
    Железный человек 3 в 3D скачать торрент
    Железный человек 3 в 3D смотреть онлайн
    Cкачать фильм Железный человек 3 в 3D бесплатно
    Железный человек 3 в 3D скачать торрент в хорошем качестве
    Железный человек 3 в 3D смотреть онлайн бесплатно в хорошем качестве


    Вы не можете начинать темы
    Вы не можете отвечать на сообщения
    Вы не можете редактировать свои сообщения
    Вы не можете удалять свои сообщения
    Вы не можете голосовать в опросах
    Вы не можете прикреплять файлы к сообщениям
    Вы можете скачивать файлы