1 сезон

1 сезон

iTunes

1

КиноПоиск HD

Кинопоиск HD

iTunes

13

1 сезон

RePack

30

Ultimate

ВАЖНО

ИГРА 18+

pack

RePack

MK11
pack

Легкие деньги

RePack

jed

RePack

fifa19

RePack

RDR2

RePack

NEED FOR SPEED™ PAYBACK

4 сезон

9 сезон

Бесстыжие 9 сезон

Все сериалы

все сериалы на PB.wtf

RePack

FAR CRY 5
  
Magnet ссылка

21 грамм / 21 Grams (Алехандро Гонсалес Иньярриту) [2003, триллер, драма, криминал, BDRip-AVC,Дубляж] pb.wtf

21 грамм через торрент pb.wtf

Размер: 3.82 GB | Добавлен: 7 лет 7 мес. назад | Торрент скачан:113 раз
Скачать  

23-08-2013 18:04 21 грамм Скачать торрент  

21 грамм / 21 Grams«Сколько весит жизнь?»

Год выпуска: 2003
Страна: США
Жанр: триллер, драма, криминал
Продолжительность: 02:04:36
Перевод: Профессиональный (дублированный)
Субтитры: Russian (UTF-8), English (UTF-8)

Режиссер: Алехандро Гонсалес Иньярриту
Сценарий: Гильермо Арриага
Продюсер: Алехандро Гонсалес Иньярриту, Роберт Салерно, Гильермо Арриага, ...


Бюджет: $20 000 000
Сборы в США: $16 290 476 var is_usa_box_popup = true;
Сборы в мире: + $44 137 363 = $60 427 839 сборы var is_world_box_popup = false;
Сборы в России: $475 000 var is_rus_box_popup = false;
Зрители: США 2.7 млн , Италия 799.3 тыс. , Испания 728.1 тыс.
Премьера (мир): 5 сентября 2003, ...
Релиз на DVD: 23 декабря 2008, «Парадиз Медиа», ...
Релиз на Blu-Ray: 22 апреля 2010, «Парадиз Медиа», ...
Рейтинг MPAA: Лицам до 17 лет обязательно присутствие взрослого

В ролях: Наоми Уоттс / Naomi Watts (Cristina Peck), Шон Пенн / Sean Penn (Paul Rivers), Бенисио Дель Торо / Benicio Del Toro (Jack Jordan), Шарлотта Генсбур / Charlotte Gainsbourg (Mary Rivers), Эдди Марсан / Eddie Marsan (Reverend John), Клеа ДюВалл / Clea DuVall (Claudia), Дэнни Хьюстон / Danny Huston (Michael), Мелисса Лео / Melissa Leo (Marianne Jordan)


Описание: Говорят, что каждый человек в момент смерти теряет 21 грамм. Столько весит горстка монет в пять центов, плитка шоколада, птица колибри…«21 грамм» — это история о надежде и человечности, жизнелюбии и выживании. Независимо от того, боитесь вы смерти или нет, она приходит, и в этот момент ваше тело становится на 21 грамм легче. Быть может, это вес человеческой души?



Качество: BDRip-AVC
Формат: MKV
Видео кодек: AVC
Аудио кодеk: AC3
Видео: 1024x554 (16:9), 23.976 fps, AVC, 3 500 Kbps
Аудио: Аудио #1: AC3, 448 Kbps, 48.0 KHz, 6 ch
Аудио #2: AC3, 448 Kbps, 48.0 KHz, 6 ch

Код:

General
Complete name                    : 21.Gramm.mkv
Format                           : Matroska
File size                        : 3.82 GiB
Duration                         : 2h 4mn
Overall bit rate                 : 4 390 Kbps
Movie name                       : 21 Grams (2003) - fanatus (kinozal.tv)
Encoded date                     : UTC 2011-11-17 17:27:53
Writing application              : mkvmerge v3.4.0 ('Rapunzel') сборка от May 15 2010 09:38:20
Writing library                  : libebml v0.8.0 + libmatroska v0.9.0

Video
ID                               : 1
Format                           : AVC
Format/Info                      : Advanced Video Codec
Format profile                   : High@L4.1
Format settings, CABAC           : Yes
Format settings, ReFrames        : 8 frames
Muxing mode                      : Container profile=Unknown@4.1
Codec ID                         : V_MPEG4/ISO/AVC
Duration                         : 2h 4mn
Bit rate                         : 3 500 Kbps
Width                            : 1 024 pixels
Height                           : 554 pixels
Display aspect ratio             : 16:9
Frame rate                       : 23.976 fps
Color space                      : YUV
Chroma subsampling               : 4:2:0
Bit depth                        : 8 bits
Scan type                        : Progressive
Bits/(Pixel*Frame)               : 0.257
Stream size                      : 2.97 GiB (78%)
Title                            : 21 Grams (2003)
Writing library                  : x264 core 116 r2074 2641b9e
Encoding settings                : cabac=1 / ref=8 / deblock=1:-3:-3 / analyse=0x3:0x133 / me=tesa / subme=11 / psy=1 / psy_rd=1.10:0.25 / mixed_ref=1 / me_range=48 / chroma_me=1 / trellis=2 / 8x8dct=1 / cqm=0 / deadzone=6,6 / fast_pskip=0 / chroma_qp_offset=-4 / threads=16 / sliced_threads=0 / nr=0 / decimate=0 / interlaced=0 / bluray_compat=0 / constrained_intra=0 / bframes=11 / b_pyramid=2 / b_adapt=2 / b_bias=0 / direct=3 / weightb=1 / open_gop=0 / weightp=2 / keyint=250 / keyint_min=23 / scenecut=40 / intra_refresh=0 / rc_lookahead=60 / rc=2pass / mbtree=1 / bitrate=3500 / ratetol=1.0 / qcomp=0.70 / qpmin=10 / qpmax=61 / qpstep=4 / cplxblur=20.0 / qblur=0.5 / ip_ratio=1.30 / aq=1:0.50
Language                         : English

Audio #1
ID                               : 2
Format                           : AC-3
Format/Info                      : Audio Coding 3
Mode extension                   : CM (complete main)
Codec ID                         : A_AC3
Duration                         : 2h 4mn
Bit rate mode                    : Constant
Bit rate                         : 448 Kbps
Channel(s)                       : 6 channels
Channel positions                : Front: L C R, Side: L R, LFE
Sampling rate                    : 48.0 KHz
Bit depth                        : 16 bits
Stream size                      : 399 MiB (10%)
Title                            : Dub
Language                         : Russian

Audio #2
ID                               : 3
Format                           : AC-3
Format/Info                      : Audio Coding 3
Mode extension                   : CM (complete main)
Codec ID                         : A_AC3
Duration                         : 2h 4mn
Bit rate mode                    : Constant
Bit rate                         : 448 Kbps
Channel(s)                       : 6 channels
Channel positions                : Front: L C R, Side: L R, LFE
Sampling rate                    : 48.0 KHz
Bit depth                        : 16 bits
Stream size                      : 399 MiB (10%)
Title                            : Original
Language                         : English

Text #1
ID                               : 4
Format                           : UTF-8
Codec ID                         : S_TEXT/UTF8
Codec ID/Info                    : UTF-8 Plain Text
Language                         : Russian

Text #2
ID                               : 5
Format                           : UTF-8
Codec ID                         : S_TEXT/UTF8
Codec ID/Info                    : UTF-8 Plain Text
Language                         : English

Menu
00:00:00.000                     : en:1. Mom Is Waiting for Us
00:04:03.535                     : en:2. So This Is Death's Waiting Room?
00:07:17.103                     : en:3. Jesus Is Our Hope
00:11:20.972                     : en:4. Call an Ambulance
00:14:30.745                     : en:5. Washing the Past
00:18:32.111                     : en:6. There's No Hitting in This House
00:22:11.455                     : en:7. Nobody Saw Him
00:26:51.944                     : en:8. Have You Been Drinking?
00:31:30.806                     : en:9. Heart-to-Heart
00:38:35.188                     : en:10. Duty Bound
00:43:18.930                     : en:11. The First Day of My New Life
00:45:32.521                     : en:12. Life Does Not Go On
00:49:52.990                     : en:13. Original Owner
00:52:48.415                     : en:14. Bled Dry
00:54:51.455                     : en:15. God Even Knows When a Single Hair Moves...
00:57:00.751                     : en:16. Going to Heaven
00:59:47.417                     : en:17. Your Friend
01:03:26.511                     : en:18. Did You Bring What I Asked You For?
01:06:06.838                     : en:19. Making Plans
01:10:44.907                     : en:20. Coming Home
01:14:53.614                     : en:21. Hidden Numbers
01:16:33.047                     : en:22. You Shouldn't Have Done It
01:20:47.259                     : en:23. Can I See You Again?
01:24:28.063                     : en:24. A Good Heart
01:36:01.923                     : en:25. Lack of Evidence
01:39:50.109                     : en:26. Daddy, a Pigeon!
01:43:22.822                     : en:27. Despair
01:45:18.145                     : en:28. Red Shoelaces
01:49:31.690                     : en:29. You're Pregnant
01:50:28.121                     : en:30. How Many Times?
01:55:34.302                     : en:31. 21 Grams
01:58:18.133                     : en:32. End Titles








pb.wtf



Скачать 21 грамм через торрент http://i60.fastpic.ru/big/2013/0823/31/8635103e31414b6a77f05661cdd64431.jpg Скачать фильм 21 грамм через торрент бесплантно в хорошем качестве Описание: Говорят, что каждый человек в момент смерти теряет 21 грамм. Столько весит горстка монет в пять центов, плитка шоколада, птица ... 8.1 10 9
Info! Золотая раздача, скачанное не засчитывается.
Торрент: Зарегистрирован [2013-08-23 18:04] · скачан: 113 раз
Статус: √ проверено
Размер: 3.82 GB
Как cкачать? Как скачать 21 грамм через торрент | UTorrent

% Раздел Тема Автор DL S | L
Фильмы [HD 720p, 1080p] (Хороший звук DUB, MVO) [ 11.54 GB ] 21 грамм / 21 Grams [2003 BDRip 1080p] DUB еnvy Скачать
1 | 0
Фильмы 2001-2005 [ 2.18 GB ] 21 грамм / 21 Grams [2003 BDRip ] _KaisiK_ Скачать
1 | 0
Фильмы [HD 720p, 1080p] (Хороший звук DUB, MVO) [ 11.08 GB ] 21 грамм / 21 Grams [2003 BDRip 720p] diletant Скачать
1 | 0
Фильмы 2001-2005 [ 2.58 GB ] 21 грамм / 21 Grams [2003 BDRip] snouman82 Скачать
1 | 0
Фильмы 2001-2005 [ 2.14 GB ] 21 грамм / 21 Grams [2003 DVDRip] Pasha74 Скачать
1 | 0

28-11-2019 20:33  

Отключить всю рекламу на сайте

23-08-2013 19:45 21 грамм Скачать торрент  

Классный фильмpb.wtf



    Дорогой пользователь! Огромная просьба, поблагодарите релизера, оцените раздачу и оставьте свои комментарий, если Вы скачали 21 грамм через торрент бесплатно! Внесите свою лепту в развитие PiratBit!
    Комментировать посты могут только пользователи прошедшие не сложную регистрацию
    Показать сообщения:    

    21 грамм через торрент
    Скачать бесплатно 21 грамм
    21 грамм скачать торрент
    21 грамм смотреть онлайн
    Cкачать фильм 21 грамм бесплатно
    21 грамм скачать торрент в хорошем качестве
    21 грамм смотреть онлайн бесплатно в хорошем качестве


    Вы не можете начинать темы
    Вы не можете отвечать на сообщения
    Вы не можете редактировать свои сообщения
    Вы не можете удалять свои сообщения
    Вы не можете голосовать в опросах
    Вы не можете прикреплять файлы к сообщениям
    Вы можете скачивать файлы