Ссылка на приватное зеркало нашего сайта всего за 1$. Внимание количество ограничено!!!

2 сезон

iTunes

1 сезон

1

2 сезон

2 сезон

iTunes

1 сезон

RePack

30

Ultimate

ВАЖНО

ИГРА 18+

pack

RePack

MK11
pack

Забери бонус

RePack

jed

!!Акция!!

Alien_Rage

RePack

fifa19

RePack

Assassins Creed: Odyssey

RePack

NEED FOR SPEED™ PAYBACK

4 сезон

9 сезон

Бесстыжие 9 сезон

Все сериалы

все сериалы на PB.wtf

RePack

FAR CRY 5
  

Пробуждение / Awakenings (Пенни Маршалл / Penny Marshall) [1990, США, Драма, BDRemux 1080p] MVO Sub rus + original eng pb.wtf

Пробуждение через торрент pb.wtf

Размер: 19.28 GB | Добавлен: 7 лет 3 мес. назад | Торрент скачан:94 раза
Скачать  

24-08-2013 14:47 Пробуждение Скачать торрент  

Пробуждение / AwakeningsГод выпуска: 1990
Страна: США
Жанр: драма, биография
Продолжительность: 02:00:41
Перевод: Профессиональный (многоголосый, закадровый)
Субтитры: русские,английские
Режиссер: Пенни Маршалл / Penny Marshall
В ролях: Роберт Де Ниро (Leonard Lowe), Робин Уильямс (Dr. Malcolm Sayer), Джон Хёрд (Dr. Kaufman), Джули Кавнер (Eleanor Costello), Пенелопа Энн Миллер (Paula), Макс фон Сюдов (Dr. Peter Ingham), Брэдли Уитфорд (Dr. Tyler), Петер Стормаре (Neurochemist), Рут Нельсон (Mrs. Lowe), Элис Драммонд (Lucy), Джудит Мэлина (Rose), Бартон Хейман (Bert)
Описание:
Доктор Малколм Сэйер, застенчивый врач и ученый, использует экспериментальные препараты, чтобы «пробуждать» обездвиженных жертв редкого заболевания. Леонард был первым пациентом, получившим это неопробованное лечение. Его пробуждение, наполненное благоговением, страхом и энтузиазмом, приводят как бы ко второму рождению и самого Сэйера по мере того, как пациент открывает для себя и доктора простые радости жизни. Воодушевленный чудесным выздоровлением Леонарда, Сэйер дает лекарство другим больным.
Рейтинг
kinopoisk.ru: 8.520 (47 840)
imdb.com: 7.60 (61 338)
MPAA: PG-13 - Детям до 13 лет просмотр не желателен
Качество: BD Remux
Формат: MKV
Видео кодек: AVC
Аудио кодек: AC3/DTS
Видео: AVC, 1920x1080 (16:9), 20089 kbps, 23,976 fps, 0,404 bpp
Аудио №1: русский / AC3 / 2.0 / 48 kHz / 192 kbps / 16 bit || -MVO 1-ый канал
Аудио №2: русский / AC3 / 2.0 / 48 kHz / 192 kbps / 16 bit || -MVO R5
Аудио №3: русский / AC3 / 2.0 / 48 kHz / 192 kbps / 16 bit || (MVO Селена Интернешнл)
Аудио №4: русский / AC3 / 2.0 / 48 kHz / 192 kbps / 16 bit || (MVO НТВ+)
Аудио №5: английский / DTS-HD / 5.1 / 48 kHz / 1560 kbps / 16 bit (Core: 5.1 / 48 kHz / 1510 kbps / 16 bit)
General
Unique ID : 217222816582779621208546616275778235027 (0xA36B97BB961D9FFA822F3708B8956A93)
Complete name : D:ТорентыAwakenings.1990.1080p. BD-Remux.mkv
Format : Matroska
Format version : Version 2
File size : 19.3 GiB
Duration : 2h 0mn
Overall bit rate mode : Variable
Overall bit rate : 22.9 Mbps
Movie name : -Talian-
Encoded date : UTC 2011-05-24 19:01:18
Writing application : mkvmerge v3.3.0 ('Language') сборка от May 14 2010 17:11:50
Writing library : libebml v0.8.0 + libmatroska v0.9.0

Video
ID : 1
Format : AVC
Format/Info : Advanced Video Codec
Format profile : High@L4.1
Format settings, CABAC : Yes
Format settings, ReFrames : 2 frames
Codec ID : V_MPEG4/ISO/AVC
Duration : 2h 0mn
Bit rate mode : Variable
Bit rate : 20.1 Mbps
Width : 1 920 pixels
Height : 1 080 pixels
Display aspect ratio : 16:9
Frame rate : 23.976 fps
Color space : YUV
Chroma subsampling : 4:2:0
Bit depth : 8 bits
Scan type : Progressive
Bits/(Pixel*Frame) : 0.404
Stream size : 16.9 GiB (88%)
Title : Awakenings.1990.1080p. BD-Remux
Language : English
Default : No
Forced : No

Audio #1
ID : 2
Format : AC-3
Format/Info : Audio Coding 3
Mode extension : CM (complete main)
Codec ID : A_AC3
Duration : 2h 0mn
Bit rate mode : Constant
Bit rate : 192 Kbps
Channel(s) : 2 channels
Channel positions : Front: L R
Sampling rate : 48.0 KHz
Bit depth : 16 bits
Compression mode : Lossy
Stream size : 166 MiB (1%)
Title : MVO-1-ый канал
Language : Russian
Default : Yes
Forced : No

Audio #2
ID : 3
Format : AC-3
Format/Info : Audio Coding 3
Mode extension : CM (complete main)
Codec ID : A_AC3
Duration : 2h 0mn
Bit rate mode : Constant
Bit rate : 192 Kbps
Channel(s) : 2 channels
Channel positions : Front: L R
Sampling rate : 48.0 KHz
Bit depth : 16 bits
Compression mode : Lossy
Stream size : 166 MiB (1%)
Title : MVО-R5
Language : Russian
Default : No
Forced : No

Audio #3
ID : 4
Format : AC-3
Format/Info : Audio Coding 3
Mode extension : CM (complete main)
Codec ID : A_AC3
Duration : 2h 0mn
Bit rate mode : Constant
Bit rate : 192 Kbps
Channel(s) : 2 channels
Channel positions : Front: L R
Sampling rate : 48.0 KHz
Bit depth : 16 bits
Compression mode : Lossy
Stream size : 166 MiB (1%)
Title : MVO-Селена Интернешнл
Language : Russian
Default : No
Forced : No

Audio #4
ID : 5
Format : AC-3
Format/Info : Audio Coding 3
Mode extension : CM (complete main)
Codec ID : A_AC3
Duration : 2h 0mn
Bit rate mode : Constant
Bit rate : 192 Kbps
Channel(s) : 2 channels
Channel positions : Front: L R
Sampling rate : 48.0 KHz
Bit depth : 16 bits
Compression mode : Lossy
Stream size : 166 MiB (1%)
Title : MVO-НТВ+
Language : Russian
Default : No
Forced : No

Audio #5
ID : 6
Format : DTS
Format/Info : Digital Theater Systems
Format profile : MA / Core
Codec ID : A_DTS
Duration : 2h 0mn
Bit rate mode : Variable
Bit rate : 1 561 Kbps / 1 510 Kbps
Channel(s) : 6 channels
Channel positions : Front: L C R, Side: L R, LFE
Sampling rate : 48.0 KHz
Bit depth : 16 bits
Compression mode : Lossless / Lossy
Title : Original
Language : English
Default : No
Forced : No

Text #1
ID : 7
Format : UTF-8
Codec ID : S_TEXT/UTF8
Codec ID/Info : UTF-8 Plain Text
Title : Sub
Language : Russian
Default : Yes
Forced : No

Text #2
ID : 8
Format : UTF-8
Codec ID : S_TEXT/UTF8
Codec ID/Info : UTF-8 Plain Text
Title : Sub
Language : English
Default : No
Forced : No
pb.wtf



Скачать Пробуждение через торрент http://i5.imageban.ru/out/2013/08/24/c9769ca76d8133c5b3cbc9e886167393.jpg Скачать фильм Пробуждение через торрент бесплантно в хорошем качестве Описание: Доктор Малколм Сэйер, застенчивый врач и ученый, использует экспериментальные препараты, чтобы «пробуждать» обездвиженных жертв ... 10 10 4
Info! Золотая раздача, скачанное не засчитывается.
Торрент: Зарегистрирован [2013-08-24 14:47] · скачан: 94 раз
Статус: √ проверено
Размер: 19.28 GB
Как cкачать? Как скачать Пробуждение через торрент | qTorrent



Последний раз редактировалось: Ворон (2013-08-24 17:36), всего редактировалось 1 раз

28-11-2019 20:33  

Отключить всю рекламу на сайте

24-08-2013 14:58 Пробуждение Скачать торрент  

Это классика жанра!pb.wtf



25-08-2013 03:28 Пробуждение Скачать торрент  

Да фильм просто замечательный много раз пересмотревал, и еще раз посмотрюpb.wtf



    Дорогой пользователь! Огромная просьба, поблагодарите релизера, оцените раздачу и оставьте свои комментарий, если Вы скачали Пробуждение через торрент бесплатно! Внесите свою лепту в развитие PiratBit!
    Комментировать посты могут только пользователи прошедшие не сложную регистрацию
    Показать сообщения:    

    Пробуждение через торрент
    Скачать бесплатно Пробуждение
    Пробуждение скачать торрент
    Пробуждение смотреть онлайн
    Cкачать фильм Пробуждение бесплатно
    Пробуждение скачать торрент в хорошем качестве
    Пробуждение смотреть онлайн бесплатно в хорошем качестве


    Вы не можете начинать темы
    Вы не можете отвечать на сообщения
    Вы не можете редактировать свои сообщения
    Вы не можете удалять свои сообщения
    Вы не можете голосовать в опросах
    Вы не можете прикреплять файлы к сообщениям
    Вы можете скачивать файлы