Ссылка на приватное зеркало нашего сайта всего за 1$. Внимание количество ограничено!!!

2 сезон

iTunes

1 сезон

1

iTunes

iTunes

iTunes

1 сезон

RePack

30

ИГРА 18+

pack

ВАЖНО

!!Акция!!

Alien_RageХит недели

RePack

MK11
pack

Забери бонус

RePack

jed

!!Акция!!

Alien_Rage

RePack

fifa19

RePack

Assassins Creed: Odyssey

RePack

NEED FOR SPEED™ PAYBACK

4 сезон

9 сезон

Бесстыжие 9 сезон

Все сериалы

все сериалы на PB.wtf

RePack

FAR CRY 5
  

Неудачники / Micmacs à tire-larigot (Жан-Пьер Жёне) [2009 г., криминал, боевик, комедия, BDRip 1080p, DUB,AVO,Original Fr,SUB] pb.wtf

Неудачники через торрент pb.wtf

Размер: 8.57 GB | Добавлен: 7 лет 2 мес. назад | Торрент скачан:39 раз
Скачать  

26-08-2013 07:21 Неудачники Скачать торрент  

Неудачники / Micmacs à tire-larigot
Год выпуска: 2009
Страна: Франция
Жанр: криминал, боевик, комедия,
Продолжительность: 01:44:15
Перевод: Профессиональный (дублированный)
Профессиональный (одноголосый закадровый) Сергей Тэкс (Serg Tex)
Субтитры: русские: 2 вида (лицензия+ перевод Denniel Palmer & Daisi), английские

Режиссер: Жан-Пьер Жёне






В ролях: Дэни Бун (Bazil), Андре Дюссолье (Nicolas Thibault de Fenouillet), Николя Марье (François Marconi), Жан-Пьер Мариэль (Placard), Иоланда Моро (Tambouille), Жюли Ферье (La Môme Caoutchouc), Омар Сай (Remington), Доминик Пинон (Fracasse), Мишель Кремадес (Petit Pierre), Мари-Жюли Бо (Calculette), Юрбен Канселье (Le gardien de nuit de Marconi), Патрик Пару (Gerbaud),

: Базилю не везет по жизни. То он чуть не погибает от шальной пули, то становится бездомным, то однажды с такими же «счастливчиками» как и он сам не начинает бороться за справедливость. И с кем бороться - с крупнейшими в стране производителями оружия. Но, кто знает, может на этот раз удача улыбнется ему?

Качество: BDRip 1080p
Формат: MKV
Видео кодек: AVC
Аудио кодек:DTS AC3
Видео: 1920 x 800 (2.400) at 23,976 fps, High@L4.1, 8558 Кбит/сек
Аудио#1: Русский; 48 kHz, DTS, 3/2 (L,C,R,l,r) + LFE ch, ~1509.00 kbps avg
Аудио#2: French; DTS; 48 kHz, 3/2 (L,C,R,l,r) + LFE ch, ~1509.00 kbps avg 24 bit
Аудио#3: Русский; Serg Tex ; AC3 Dolby Digital 2 ch (L,R) 192 Kbps; CBR




D:неудачникиMicmacs.A.Tire.Larigot.2009.1080p.2.Rus.Fra.x264-FHD.mkv
General
Unique ID : 240519969792788942311963398901373726267 (0xB4F2761182F2DEC1B292D45F6C9DEE3B)
Complete name : D:неудачникиMicmacs.A.Tire.Larigot.2009.1080p.2.Rus.Fra.x264-FHD.mkv
Format : Matroska
Format version : Version 2
File size : 8.57 GiB
Duration : 1h 44mn
Overall bit rate : 11.8 Mbps
Encoded date : UTC 2010-08-09 20:11:31
Writing application : mkvmerge v4.2.0 ('No Talking') сборка от Jul 28 2010 18:38:23
Writing library : libebml v1.0.0 + libmatroska v1.0.0
Video #1
ID : 1
Format : AVC
Format/Info : Advanced Video Codec
Format profile : High@L4.1
Format settings, CABAC : Yes
Format settings, ReFrames : 4 frames
Codec ID : V_MPEG4/ISO/AVC
Duration : 1h 44mn
Bit rate : 8 558 Kbps
Width : 1 920 pixels
Height : 800 pixels
Display aspect ratio : 2.40:1
Frame rate mode : Constant
Frame rate : 23.976 fps
Color space : YUV
Chroma subsampling : 4:2:0
Bit depth : 8 bits
Scan type : Progressive
Bits/(Pixel*Frame) : 0.232
Stream size : 6.06 GiB (71%)
Title : Video
Writing library : x264 core 88 r1471 1144615
Encoding settings : cabac=1 / ref=5 / deblock=1:0:0 / analyse=0x3:0x113 / me=umh / subme=7 / psy=1 / psy_rd=1.00:0.00 / mixed_ref=1 / me_range=16 / chroma_me=1 / trellis=1 / 8x8dct=1 / cqm=0 / deadzone=21,11 / fast_pskip=0 / chroma_qp_offset=-2 / threads=6 / sliced_threads=0 / nr=0 / decimate=1 / mbaff=0 / constrained_intra=0 / bframes=3 / b_pyramid=1 / b_adapt=1 / b_bias=0 / direct=1 / wpredb=1 / wpredp=2 / keyint=250 / keyint_min=25 / scenecut=40 / intra_refresh=0 / rc_lookahead=40 / rc=2pass / mbtree=1 / bitrate=8558 / ratetol=1.0 / qcomp=0.60 / qpmin=10 / qpmax=51 / qpstep=4 / cplxblur=20.0 / qblur=0.5 / ip_ratio=1.40 / aq=1:1.00
Language : French
Default : Yes
Forced : No
Audio #2
ID : 2
Format : DTS
Format/Info : Digital Theater Systems
Mode : 16
Format settings, Endianness : Big
Codec ID : A_DTS
Duration : 1h 44mn
Bit rate mode : Constant
Bit rate : 1 510 Kbps
Channel(s) : 6 channels
Channel positions : Front: L C R, Side: L R, LFE
Sampling rate : 48.0 KHz
Bit depth : 24 bits
Compression mode : Lossy
Delay relative to video : 1s 0ms
Stream size : 1.10 GiB (13%)
Title : Дубляж DTS 5.1 1509 kbps
Language : Russian
Default : Yes
Forced : No
Audio #3
ID : 3
Format : DTS
Format/Info : Digital Theater Systems
Mode : 16
Format settings, Endianness : Big
Codec ID : A_DTS
Duration : 1h 44mn
Bit rate mode : Constant
Bit rate : 1 510 Kbps
Channel(s) : 6 channels
Channel positions : Front: L C R, Side: L R, LFE
Sampling rate : 48.0 KHz
Bit depth : 24 bits
Compression mode : Lossy
Stream size : 1.10 GiB (13%)
Title : French DTS 5.1 1509 kbps
Language : French
Default : No
Forced : No
Audio #4
ID : 4
Format : AC-3
Format/Info : Audio Coding 3
Mode extension : CM (complete main)
Format settings, Endianness : Big
Codec ID : A_AC3
Duration : 1h 44mn
Bit rate mode : Constant
Bit rate : 192 Kbps
Channel(s) : 2 channels
Channel positions : Front: L R
Sampling rate : 48.0 KHz
Bit depth : 16 bits
Compression mode : Lossy
Stream size : 143 MiB (2%)
Title : Озвучка Serg Tex Перевод Denniel Palmer & Daisi) AC3 2ch 192kbps
Language : Russian
Default : No
Forced : No
Text #5
ID : 5
Format : UTF-8
Codec ID : S_TEXT/UTF8
Codec ID/Info : UTF-8 Plain Text
Title : Перевод Сергея Козина (с Лицензии)
Language : Russian
Default : No
Forced : No
Text #6
ID : 6
Format : UTF-8
Codec ID : S_TEXT/UTF8
Codec ID/Info : UTF-8 Plain Text
Title : Перевод Denniel Palmer & Daisi
Language : Russian
Default : Yes
Forced : No
Text #7
ID : 7
Format : UTF-8
Codec ID : S_TEXT/UTF8
Codec ID/Info : UTF-8 Plain Text
Language : English
Default : No
Forced : No


Неудачники скачать торрент


pb.wtf



Скачать Неудачники через торрент http://pic.kartinco.top/images/3/ujwz441ier.jpg Скачать фильм Неудачники через торрент бесплантно в хорошем качестве В ролях: Дэни Бун (Bazil), Андре Дюссолье (Nicolas Thibault de Fenouillet), Николя Марье (François Marconi), Жан-Пьер Мариэль (Placard), ... 10 10 4
Info! Золотая раздача, скачанное не засчитывается.
Торрент: Зарегистрирован [2013-08-26 07:21] · скачан: 39 раз
Статус: √ проверено
Размер: 8.57 GB
Как cкачать? Как скачать Неудачники через торрент | qTorrent

% Раздел Тема Автор DL S | L
Фильмы 2009 [ 2.74 GB ] Неудачники / Micmacs a tire-larigot [2009 BDRip-AVC] DUB koenig Скачать
1 | 0
Фильмы [HD 720p, 1080p] (Хороший звук DUB, MVO) [ 3.72 GB ] Неудачники / Micmacs a tire-larigot [2009 BDRip 720p by msltel] DUB msltel Скачать
1 | 0
Фильмы [HD 720p, 1080p] (Хороший звук DUB, MVO) [ 10.41 GB ] Неудачники / Micmacs a tire-larigot [2009 BDRip 1080p by msltel] DUB msltel Скачать
1 | 0
Фильмы 2009 [ 1.36 GB ] Неудачники / Micmacs a tire-larigot [2009 HDRip] karimansky Скачать
1 | 0
Фильмы с украинским озвучиванием [ 1.22 GB ] Неудачники / Витівки до зелених чортиків / Micmacs à tire-larigot [2009 BDRip] [Ukr DUB] killermax2013 Скачать
1 | 0
Фильмы 2009 [ 2.18 GB ] Неудачники / Micmacs а tire-larigot [2009 DUB ] Newton5 Скачать
1 | 0
Фильмы (DVD фильмы) [ 4.35 GB ] Неудачники / Micmacs a tire-larigot [2009 DVD5 лицензия] nickson-82 Скачать
1 | 0

28-11-2019 20:33  

Отключить всю рекламу на сайте

26-08-2013 07:30 Неудачники Скачать торрент  

хороший фильм, своеобразный, советую.
Assasinca спасибо pb.wtf



26-08-2013 14:04 Неудачники Скачать торрент  

Французы всегда снимали необычные фильмы в отличии от "фабрики грёз". Посмотрим как этот.pb.wtf



    Дорогой пользователь! Огромная просьба, поблагодарите релизера, оцените раздачу и оставьте свои комментарий, если Вы скачали Неудачники через торрент бесплатно! Внесите свою лепту в развитие PiratBit!
    Комментировать посты могут только пользователи прошедшие не сложную регистрацию
    Показать сообщения:    

    Неудачники через торрент
    Скачать бесплатно Неудачники
    Неудачники скачать торрент
    Неудачники смотреть онлайн
    Cкачать фильм Неудачники бесплатно
    Неудачники скачать торрент в хорошем качестве
    Неудачники смотреть онлайн бесплатно в хорошем качестве


    Вы не можете начинать темы
    Вы не можете отвечать на сообщения
    Вы не можете редактировать свои сообщения
    Вы не можете удалять свои сообщения
    Вы не можете голосовать в опросах
    Вы не можете прикреплять файлы к сообщениям
    Вы можете скачивать файлы