2 сезон

iTunes

MVO

1

2 сезон

iTunes

iTunes

1 сезон

RePack

30

Ultimate

ВАЖНО

ИГРА 18+

pack

RePack

MK11
pack

Легкие деньги

RePack

jed

RePack

fifa19

RePack

RDR2

RePack

NEED FOR SPEED™ PAYBACK

4 сезон

9 сезон

Бесстыжие 9 сезон

Все сериалы

все сериалы на PB.wtf

RePack

FAR CRY 5

Anonymous, доброй ночи, мы не успеваем собрать деньги на оплату серверов за декабрь и январь, помогите нам пожалуйста в это трудное время. В качестве благодарности мы отключим Вам всю рекламу на сайте (укажите свой ник в строку Ваше имя)!

×
  
Magnet ссылка

Железный человек 3 в 3D / Iron Man 3 in 3D (Шейн Блэк) [2013 г., фантастика, боевик, приключения, BDRip 1080p, Дубляж, лицензия] Анаглиф (Дюбуа) pb.wtf

Железный человек 3 в 3D через торрент pb.wtf

Размер: 8.28 GB | Добавлен: 7 лет 4 мес. назад | Торрент скачан:314 раз
Скачать  

26-08-2013 12:27 Железный человек 3 в 3D Скачать торрент  

Железный человек 3 в 3D/ Iron Man 3 in 3D
Год выпуска: 2013
Страна: США, Китай (Marvel Studios, Paramount Pictures, DMG Entertainment)
Жанр: фантастика, боевик, приключения,
Продолжительность: 02:10:33
Перевод: Дубляж, Лицензия

Режиссер: Шейн Блэк
Продюссер: Кевин Файги, Виктория Алонсо, Митчелл Белл
Сценарий: Дрю Пирс, Шейн Блэк, Уоррен Эллис

Бюджет: $200 000 000
Премьера в мире: 18 апреля 2013



Роли исполняли (дублировали):
Tony Stark - Роберт Дауни мл. (Владимир Зайцев)
Pepper Potts - Гвинет Пэлтроу (Инга Сметанина)
Полковник James Rhodes - Дон Чидл (Михаил Тихонов)
Aldrich Killian - Гай Пирс (Денис Некрасов)
The Mandarin - Бен Кингсли (Юрий Меншагин)
Savin - Джеймс Бэдж Дэйл (Алексей Черных)
Maya Hansen - Ребекка Холл (Ирина Киреева)
Harley Keener - Тай Симпкинс (Дениз Озкан)
Президент Ellis - Уильям Сэдлер (Владимир Рыбальченко)
Happy Hogan - Джон Фавро (Артем Маликов)
Brandt - Стефани Зостак (Елена Шульман)
Jarvis (озвучка) - Пол Беттани (Григорий Перель)
Миссис Davis - Дейл Дикки (Наталья Корчагина)
Вице-президент Rodriguez - Мигель Феррер (Рифат Сифулин)
Wu Jiaqi - Фань Бинбин
Ho Yinsen - Шон Тоуб (Василий Дахненко)
Bruce Banner - Марк Руффало (Алексей Мясников),

Описание: Когда мир Старка рушится на его глазах по вине неизвестных противников, Тони жаждет найти виновных и свести с ними счеты. Оказавшись в безвыходной ситуации, Старк может рассчитывать только на себя и свою изобретательность, чтобы защитить тех, кто ему дорог. Это становится настоящим испытанием для героя, которому придется не только сражаться с коварным врагом, но и разобраться в себе, чтобы найти ответ на вопрос, который давно его тревожит: что важнее — человек или костюм?

Доп. информация: CROPФормат 3D: Анаглиф (Дюбуа)

Внимание: Справа и слева у видеоряда обрезано по 242р, что дает возможность просмотра на полный экран (без черных полос) на телевизорах с соотношением сторон 16:9 без изменения пропорций.



Качество: BDRip 1080p
Формат: MKV
Видео кодек: H.264
Аудио кодек: AC3
Видео: AVC / 23,976 fps / 1920 х 1072p, (16:9) / 7592 Kbps, (0.154 bit/pixel)
Аудио#1: Русский / AC3 / 48 KHz / 5.1 ch / 640 Kbps (Дубляж - BD 3D)
Аудио#2: Украинский / AC3 / 48 KHz / 2.0 ch / 192 Kbps (Дубляж - iTunes)
Аудио#3: Английский / AC3 / 48 KHz / 5.1 ch / 640 Kbps (Original)



скриншот   скриншот   скриншот   скриншот   скриншот   скриншот  
Общее
Уникальный идентификатор : 206433079951175894129180908026377363557 (0x9B4D90A515E5CFFC8CF07F31AC616065)
Полное имя : D:DVDIronMan3.3D(CROP)2013(Anaglyph_Dubois).mkv
Формат : Matroska
Версия формата : Version 2
Размер файла : 8,28 Гбайт
Продолжительность : 2 ч. 10 м.
Общий поток : 9076 Кбит/сек
Название фильма : Железный человек 3 / Iron Man 3 (3D) 2013(CROP.242p)(Anaglyph_Dubois)
Дата кодирования : UTC 2013-08-23 16:57:24
Программа кодирования : mkvmerge v4.0.0 ('The Stars were mine') сборка от Jun 6 2010 16:18:42
Библиотека кодирования : libebml v1.0.0 + libmatroska v1.0.0

Видео
Идентификатор : 1
Формат : AVC
Формат/Информация : Advanced Video Codec
Профиль формата : Baseline@L4.0
Параметр CABAC формата : Нет
Параметр ReFrames формата : 4 кадра
Идентификатор кодека : V_MPEG4/ISO/AVC
Продолжительность : 2 ч. 10 м.
Битрейт : 7592 Кбит/сек
Ширина : 1920 пикселей
Высота : 1072 пикселя
Соотношение сторон : 16:9
Режим частоты кадров : Постоянный
Частота кадров : 23,976 кадра/сек
Цветовое пространство : YUV
Субдискретизация насыщенности : 4:2:0
Битовая глубина : 8 бит
Тип развёртки : Прогрессивная
Бит/(Пиксели*Кадры) : 0.154
Размер потока : 6,77 Гбайт (82%)
Заголовок : Iron Man 3(3D)2013(Anaglyph_Dubois).mkv
Библиотека кодирования : x264 core 130 r2273 b3065e6
Настройки программы : cabac=0 / ref=4 / deblock=0:-1:-1 / analyse=0:0 / me=dia / subme=0 / psy=1 / psy_rd=1.00:0.15 / mixed_ref=0 / me_range=16 / chroma_me=1 / trellis=0 / 8x8dct=0 / cqm=0 / deadzone=21,11 / fast_pskip=1 / chroma_qp_offset=0 / threads=3 / lookahead_threads=1 / sliced_threads=0 / nr=0 / decimate=1 / interlaced=0 / bluray_compat=0 / constrained_intra=0 / bframes=0 / weightp=0 / keyint=240 / keyint_min=24 / scenecut=0 / intra_refresh=0 / rc=abr / mbtree=0 / bitrate=7592 / ratetol=1.0 / qcomp=0.60 / qpmin=0 / qpmax=69 / qpstep=4 / ip_ratio=1.40 / aq=0
Язык : English
Default : Да
Forced : Нет
Основные цвета : BT.709
Характеристики трансфера : BT.709
Коэффициенты матрицы : BT.709

Аудио #1
Идентификатор : 2
Формат : AC-3
Формат/Информация : Audio Coding 3
Расширение режима : CM (complete main)
Параметр Endianness формата : Big
Идентификатор кодека : A_AC3
Продолжительность : 2 ч. 10 м.
Вид битрейта : Постоянный
Битрейт : 640 Кбит/сек
Каналы : 6 каналов
Расположение каналов : Front: L C R, Side: L R, LFE
Частота : 48,0 КГц
Битовая глубина : 16 бит
Метод сжатия : С потерями
Размер потока : 598 Мбайт (7%)
Заголовок : Дубляж - BD 3D
Язык : Russian
Default : Нет
Forced : Да

Аудио #2
Идентификатор : 3
Формат : AC-3
Формат/Информация : Audio Coding 3
Расширение режима : CM (complete main)
Параметр Endianness формата : Big
Идентификатор кодека : A_AC3
Продолжительность : 2 ч. 10 м.
Вид битрейта : Постоянный
Битрейт : 192 Кбит/сек
Каналы : 2 канала
Расположение каналов : Front: L R
Частота : 48,0 КГц
Битовая глубина : 16 бит
Метод сжатия : С потерями
Размер потока : 179 Мбайт (2%)
Заголовок : Дубляж - iTunes
Язык : Ukrainian
Default : Нет
Forced : Нет

Аудио #3
Идентификатор : 4
Формат : AC-3
Формат/Информация : Audio Coding 3
Расширение режима : CM (complete main)
Параметр Endianness формата : Big
Идентификатор кодека : A_AC3
Продолжительность : 2 ч. 10 м.
Вид битрейта : Постоянный
Битрейт : 640 Кбит/сек
Каналы : 6 каналов
Расположение каналов : Front: L C R, Side: L R, LFE
Частота : 48,0 КГц
Битовая глубина : 16 бит
Метод сжатия : С потерями
Размер потока : 598 Мбайт (7%)
Заголовок : Original
Язык : English
Default : Нет
Forced : Нет

pb.wtf



Скачать Железный человек 3 в 3D через торрент http://pic.kartinco.top/images/3/29ntaamhji.jpg Скачать фильм Железный человек 3 в 3D через торрент бесплантно в хорошем качестве Описание: Когда мир Старка рушится на его глазах по вине неизвестных противников, Тони жаждет найти виновных и свести с ними счеты. ... 10 10 10
Info! Золотая раздача, скачанное не засчитывается.
Торрент: Зарегистрирован [2013-08-26 12:27] · скачан: 314 раз
Статус: √ проверено
Размер: 8.28 GB
Как cкачать? Как скачать Железный человек 3 в 3D через торрент | UTorrent

% Раздел Тема Автор DL S | L
3D Фильмы [ 9.67 GB ] Железный человек 3 в 3D / Iron Man 3 in 3D [2013 BDRip 1080p лицензия] Анаглиф slaventi-69 Скачать
1 | 0

28-11-2019 20:33  

Отключить всю рекламу на сайте

    Дорогой пользователь! Огромная просьба, поблагодарите релизера, оцените раздачу и оставьте свои комментарий, если Вы скачали Железный человек 3 в 3D через торрент бесплатно! Внесите свою лепту в развитие PiratBit!
    Комментировать посты могут только пользователи прошедшие не сложную регистрацию
    Показать сообщения:    

    Железный человек 3 в 3D через торрент
    Скачать бесплатно Железный человек 3 в 3D
    Железный человек 3 в 3D скачать торрент
    Железный человек 3 в 3D смотреть онлайн
    Cкачать фильм Железный человек 3 в 3D бесплатно
    Железный человек 3 в 3D скачать торрент в хорошем качестве
    Железный человек 3 в 3D смотреть онлайн бесплатно в хорошем качестве


    Вы не можете начинать темы
    Вы не можете отвечать на сообщения
    Вы не можете редактировать свои сообщения
    Вы не можете удалять свои сообщения
    Вы не можете голосовать в опросах
    Вы не можете прикреплять файлы к сообщениям
    Вы можете скачивать файлы