Ссылка на приватное зеркало нашего сайта всего за 1$. Внимание количество ограничено!!!

2 сезон

iTunes

1 сезон

1

iTunes

iTunes

iTunes

1 сезон

RePack

30

ИГРА 18+

pack

ВАЖНО

!!Акция!!

Alien_RageХит недели

RePack

MK11
pack

Забери бонус

RePack

jed

!!Акция!!

Alien_Rage

RePack

fifa19

RePack

Assassins Creed: Odyssey

RePack

NEED FOR SPEED™ PAYBACK

4 сезон

9 сезон

Бесстыжие 9 сезон

Все сериалы

все сериалы на PB.wtf

RePack

FAR CRY 5
  

Небесный суд (Алена Званцова) (4 серии из 4) [2011, 2012 гг., черная комедия, драма, DVDRip-AVC ] pb.wtf

Небесный суд через торрент pb.wtf

Размер: 4.28 GB | Добавлен: 7 лет 2 мес. назад | Торрент скачан:507 раз
Скачать  

26-08-2013 18:11 Небесный суд Скачать торрент  



Небесный суд
Год выпуска: 2011~2012
Страна: Россия
Жанр: черная комедия, драма,
Продолжительность: 4 х ~ 00:49:00

Режиссер: Алена Званцова


В ролях: Константин Хабенский, Михаил Пореченков, Ингеборга Дапкунайте, Анна Михалкова, Евгения Добровольская, Никита Зверев, Дмитрий Марьянов, Марина Дуксова, Юрий Ицков, Юрий Ермаков, Яна Сексте, Сергей Бызгу, Сергей Барковский, Артур Ваха, Олег Мазуров, Борис Хвошнянский, Игорь Гаспарян, Альберт Афонин, Даниэла Стоянович, Дмитрий Ермакович, Юрий Орлов, Виталий Коваленко, Ксения Каталымова, Леонид Алимов, Константин Воробьёв,

: Адвокатская драма с неожиданным ракурсом прочтения. Адвокаты Андрей и Вениамин – друзья, которых объединяет многое, но работа то и дело ставит их на разные стороны баррикад. Особенность их положения в том, что судебные процессы, в которых они участвуют, происходят не в земной жизни, а в загробной. Они – участники Небесного Суда, решающего, куда направить душу человека после смерти, в Рай или в Ад. В одно из дел неожиданно вмешиваются личные интересы Андрея: на скамью подсудимых попадает человек, сделавший предложение его вдове.

Качество: DVDRip-AVC
Формат: MKV
Видео кодек: AVC
Аудио кодек: AC3
Видео: 720x576x1 024px × 576px (16:9), 25.000 fps, 2 538 Kbps
Аудио#1: 448 Kbps, 48.0 KHz, 6 ch




E:киноНебесный судNebesniy.sud(1-4.serii.iz.4).2012.x264.DVDRip(AVC).AVCurtainNebesniy.sud(1.seriya.iz.4).2012.x264.DVDRip(AVC).AVCurtain.mkv
General
Unique ID : 249463600451445658299154211814557524704 (0xBBACF11ABFC692228715084858EAA2E0)
Complete name : E:киноНебесный судNebesniy.sud(1-4.serii.iz.4).2012.x264.DVDRip(AVC).AVCurtainNebesniy.sud(1.seriya.iz.4).2012.x264.DVDRip(AVC).AVCurtain.mkv
Format : Matroska
Format version : Version 2
File size : 1.01 GiB
Duration : 48mn 25s
Overall bit rate : 2 986 Kbps
Encoded date : UTC 2012-06-21 10:14:51
Writing application : mkvmerge v5.0.1 ('Es ist Sommer') built on Nov 6 2011 16:23:40
Writing library : libebml v1.2.2 + libmatroska v1.3.0
Video #1
ID : 1
Format : AVC
Format/Info : Advanced Video Codec
Format profile : High@L4.1
Format settings, CABAC : Yes
Format settings, ReFrames : 8 frames
Codec ID : V_MPEG4/ISO/AVC
Duration : 48mn 25s
Bit rate : 2 538 Kbps
Width : 720 pixels
Height : 576 pixels
Display aspect ratio : 16:9
Frame rate mode : Constant
Frame rate : 25.000 fps
Standard : PAL
Color space : YUV
Chroma subsampling : 4:2:0
Bit depth : 8 bits
Scan type : Progressive
Bits/(Pixel*Frame) : 0.245
Stream size : 859 MiB (83%)
Writing library : x264 core 119 r2106 07efeb4
Encoding settings : cabac=1 / ref=8 / deblock=1:0:0 / analyse=0x3:0x133 / me=umh / subme=10 / psy=1 / psy_rd=1.00:0.10 / mixed_ref=1 / me_range=32 / chroma_me=1 / trellis=2 / 8x8dct=1 / cqm=0 / deadzone=21,11 / fast_pskip=1 / chroma_qp_offset=-3 / threads=6 / sliced_threads=0 / nr=0 / decimate=1 / interlaced=0 / bluray_compat=0 / constrained_intra=0 / bframes=7 / b_pyramid=2 / b_adapt=2 / b_bias=0 / direct=3 / weightb=1 / open_gop=0 / weightp=2 / keyint=250 / keyint_min=25 / scenecut=40 / intra_refresh=0 / rc_lookahead=40 / rc=2pass / mbtree=1 / bitrate=2538 / ratetol=1.0 / qcomp=0.60 / qpmin=10 / qpmax=51 / qpstep=4 / cplxblur=20.0 / qblur=0.5 / ip_ratio=1.40 / aq=1:1.00
Default : Yes
Forced : No
Audio #2
ID : 2
Format : AC-3
Format/Info : Audio Coding 3
Mode extension : CM (complete main)
Format settings, Endianness : Big
Codec ID : A_AC3
Duration : 48mn 25s
Bit rate mode : Constant
Bit rate : 448 Kbps
Channel(s) : 6 channels
Channel positions : Front: L C R, Side: L R, LFE
Sampling rate : 48.0 KHz
Bit depth : 16 bits
Compression mode : Lossy
Stream size : 155 MiB (15%)
Default : Yes
Forced : No


Небесный суд скачать торрент


pb.wtf



Скачать Небесный суд через торрент http://pic.kartinco.top/images/3/rmnxsus3e9.jpg Скачать фильм Небесный суд через торрент бесплантно в хорошем качестве В ролях: Константин Хабенский, Михаил Пореченков, Ингеборга Дапкунайте, Анна Михалкова, Евгения Добровольская, Никита Зверев, Дмитрий ... 9.7 10 18
Info! Золотая раздача, скачанное не засчитывается.
Торрент: Зарегистрирован [2013-08-26 18:11] · скачан: 507 раз
Статус: √ проверено
Размер: 4.28 GB
Как cкачать? Как скачать Небесный суд через торрент | qTorrent

% Раздел Тема Автор DL S | L
# Наши новые фильмы 2012 [ 2.06 GB ] Небесный суд [2012 WEB-DLRip ()] coc900 Скачать
1 | 0
Наши сериалы [ 2.65 GB ] Небесный суд. Продолжение / Серии 1-4 из 4 [2014 Россия SATRip) GEKADOL Скачать
1 | 0
Наши новые фильмы 2012 [ 749 MB ] Небесный суд [2012 WEB-DLRip ] Se7ven95 Скачать
1 | 0
Наши новые фильмы 2012 [ 1.45 GB ] Небесный суд [2012 Россия WEB-DLRip] Ворон Скачать
1 | 0

28-11-2019 20:33  

Отключить всю рекламу на сайте

26-08-2013 18:31 Небесный суд Скачать торрент  

Указал красным как должно быть, можешь менять на любой цвет.На первоисточнику так и указанно)pb.wtf



26-08-2013 18:32 Небесный суд Скачать торрент  

Vetаl писал(а):

Указал красным как должно быть, можешь менять на любой цвет.

:cansored: :shoot2: pb.wtf



    Дорогой пользователь! Огромная просьба, поблагодарите релизера, оцените раздачу и оставьте свои комментарий, если Вы скачали Небесный суд через торрент бесплатно! Внесите свою лепту в развитие PiratBit!
    Комментировать посты могут только пользователи прошедшие не сложную регистрацию
    Показать сообщения:    

    Небесный суд через торрент
    Скачать бесплатно Небесный суд
    Небесный суд скачать торрент
    Небесный суд смотреть онлайн
    Cкачать фильм Небесный суд бесплатно
    Небесный суд скачать торрент в хорошем качестве
    Небесный суд смотреть онлайн бесплатно в хорошем качестве


    Вы не можете начинать темы
    Вы не можете отвечать на сообщения
    Вы не можете редактировать свои сообщения
    Вы не можете удалять свои сообщения
    Вы не можете голосовать в опросах
    Вы не можете прикреплять файлы к сообщениям
    Вы можете скачивать файлы