Ссылка на приватное зеркало нашего сайта всего за 1$. Внимание количество ограничено!!!

2 сезон

iTunes

1 сезон

1

2 сезон

2 сезон

iTunes

1 сезон

RePack

30

Ultimate

ВАЖНО

ИГРА 18+

pack

RePack

MK11
pack

Забери бонус

RePack

jed

!!Акция!!

Alien_Rage

RePack

fifa19

RePack

Assassins Creed: Odyssey

RePack

NEED FOR SPEED™ PAYBACK

4 сезон

9 сезон

Бесстыжие 9 сезон

Все сериалы

все сериалы на PB.wtf

RePack

FAR CRY 5
  

Соблазнитель 2 / Kokowääh 2 (Тиль Швайгер / Til Schweiger, Торстен Кюнстлер / Torsten Künstler) [2013, Германия,комедия, семейный, BDRip 1080p] Любительский (двухголосый) HamsterStudio pb.wtf

Соблазнитель 2 через торрент pb.wtf

Размер: 8.87 GB | Добавлен: 7 лет 3 мес. назад | Торрент скачан:74 раза
Скачать  

26-08-2013 22:46 Соблазнитель 2 Скачать торрент  

Соблазнитель 2 / Kokowääh 2

«Ты готов ко второму раунду?»

  • Год выпуска:2013
  • Страна:Германия
  • Жанр:комедия, семейный
  • Продолжительность: 02:02:28
  • Перевод:Любительский (двухголосый) HamsterStudio

  • Субтитры: Нет
    • Режиссер:Тиль Швайгер / Til Schweiger, Торстен Кюнстлер / Torsten Künstler
    • Сценарий: Тиль Швайгер / Til Schweiger
    • Продюсер: Тиль Швайгер / Til Schweiger

  • В ролях:Тиль Швайгер (Henry), Эмма Швайгер (Magdalena), Самуэль Финци (Tristan), Жасмин Герат (Katharina), Маурицио Магно (Nick), Маттиас Швайгхефер (Matthias Schweighöfer), Михаэль Островский (Joseph Fichtlhuber), Яна Рейнерманн (Nadja), Гедеон Буркхард (Luc), Юлия Йенч (Nicks Mutter), Паула Каленберг (Groupie 2), Нико (Max)
    • Описание:
      Генри - в прошлом известный ловелас. Однако пришло время забыть о прежних привычках и стать прилежным семьянином. Дети, бывший муж Катарины, Тристан со своей привлекательной подружкой, молодая няня, истеричный директор студии - все они превращают жизнь Генри в череду смешных, порой неловких ситуаций. Как найти время на всех и в то же время побороть инстинкты, ведь вокруг столько соблазнов...

  • Рейтинг
    kinopoisk.ru: 6.947 (933)
    imdb.com: 4.80 (496)
    • Качество:BDRip 1080p
    • Формат:MKV
    • Видео кодек: AVC
    • Аудио кодек:DTS
    • Видео: AVC, 1920x816 (2.35:1), 7145 kbps, 23,976 fps, 0,190 bpp
    • Аудио №1: русский / DTS / 5.1 / 48 kHz / 1510 kbps / 24 bit ||
    • Аудио №2: немецкий / DTS / 5.1 / 48 kHz / 1510 kbps / 24 bit


    General
    Unique ID : 248263661044529717870089342172254890716 (0xBAC5D786293F5395AAC27015ADAEEADC)
    Complete name : D:ТорентыKokowahh.2.BDRip.1080p.mkv
    Format : Matroska
    Format version : Version 4 / Version 2
    File size : 8.87 GiB
    Duration : 2h 2mn
    Overall bit rate : 10.4 Mbps
    Movie name : CINEMANIA.CC
    Encoded date : UTC 2013-08-26 18:27:28
    Writing application : mkvmerge v6.3.0 ('You can't stop me!') built on Jun 28 2013 20:09:41
    Writing library : libebml v1.3.0 + libmatroska v1.4.0

    Video
    ID : 1
    Format : AVC
    Format/Info : Advanced Video Codec
    Format profile : High@L4.1
    Format settings, CABAC : Yes
    Format settings, ReFrames : 5 frames
    Codec ID : V_MPEG4/ISO/AVC
    Duration : 2h 2mn
    Bit rate : 7 146 Kbps
    Width : 1 920 pixels
    Height : 816 pixels
    Display aspect ratio : 2.35:1
    Frame rate : 23.976 fps
    Color space : YUV
    Chroma subsampling : 4:2:0
    Bit depth : 8 bits
    Scan type : Progressive
    Bits/(Pixel*Frame) : 0.190
    Stream size : 6.11 GiB (69%)
    Writing library : x264 core 133 r2334 a3ac64b
    Encoding settings : cabac=1 / ref=5 / deblock=1:0:0 / analyse=0x3:0x113 / me=umh / subme=7 / psy=1 / psy_rd=1.00:0.00 / mixed_ref=1 / me_range=16 / chroma_me=1 / trellis=1 / 8x8dct=1 / cqm=0 / deadzone=21,11 / fast_pskip=0 / chroma_qp_offset=-2 / threads=6 / lookahead_threads=1 / sliced_threads=0 / nr=0 / decimate=1 / interlaced=0 / bluray_compat=0 / constrained_intra=0 / bframes=3 / b_pyramid=2 / b_adapt=1 / b_bias=0 / direct=1 / weightb=1 / open_gop=0 / weightp=2 / keyint=250 / keyint_min=23 / scenecut=40 / intra_refresh=0 / rc_lookahead=40 / rc=crf / mbtree=1 / crf=20.0 / qcomp=0.60 / qpmin=0 / qpmax=69 / qpstep=4 / ip_ratio=1.40 / aq=1:1.00
    Default : Yes
    Forced : No

    Audio #1
    ID : 2
    Format : DTS
    Format/Info : Digital Theater Systems
    Codec ID : A_DTS
    Duration : 2h 2mn
    Bit rate mode : Constant
    Bit rate : 1 510 Kbps
    Channel(s) : 6 channels
    Channel positions : Front: L C R, Side: L R, LFE
    Sampling rate : 48.0 KHz
    Bit depth : 24 bits
    Compression mode : Lossy
    Stream size : 1.29 GiB (15%)
    Title : [HamsterStudio] - перевод Константин Рокин - DVO
    Language : Russian
    Default : No
    Forced : No

    Audio #2
    ID : 3
    Format : DTS
    Format/Info : Digital Theater Systems
    Codec ID : A_DTS
    Duration : 2h 2mn
    Bit rate mode : Constant
    Bit rate : 1 510 Kbps
    Channel(s) : 6 channels
    Channel positions : Front: L C R, Side: L R, LFE
    Sampling rate : 48.0 KHz
    Bit depth : 24 bits
    Compression mode : Lossy
    Stream size : 1.29 GiB (15%)
    Language : German
    Default : No
    Forced : No

    Text #1
    ID : 4
    Format : UTF-8
    Codec ID : S_TEXT/UTF8
    Codec ID/Info : UTF-8 Plain Text
    Language : English
    Default : No
    Forced : No

    Text #2
    ID : 5
    Format : UTF-8
    Codec ID : S_TEXT/UTF8
    Codec ID/Info : UTF-8 Plain Text
    Language : German
    Default : No
    Forced : No


    © Оформление by Vetal
    Постер by Tarkin
    pb.wtf



  • Скачать Соблазнитель 2 через торрент http://i2.imageban.ru/out/2013/08/27/ce5389973d7e85d1697ed4de5d81dd61.png Скачать фильм Соблазнитель 2 через торрент бесплантно в хорошем качестве Описание:Генри - в прошлом известный ловелас. Однако пришло время забыть о прежних привычках и стать прилежным семьянином. Дети, бывший муж ... 7.8 10 5
    Info! Золотая раздача, скачанное не засчитывается.
    Торрент: Зарегистрирован [2013-08-26 22:46] · скачан: 74 раз
    Статус: √ проверено
    Размер: 8.87 GB
    Как cкачать? Как скачать Соблазнитель 2 через торрент | qTorrent

    28-11-2019 20:33  

    Отключить всю рекламу на сайте

      Дорогой пользователь! Огромная просьба, поблагодарите релизера, оцените раздачу и оставьте свои комментарий, если Вы скачали Соблазнитель 2 через торрент бесплатно! Внесите свою лепту в развитие PiratBit!
      Комментировать посты могут только пользователи прошедшие не сложную регистрацию
      Показать сообщения:    

      Соблазнитель 2 через торрент
      Скачать бесплатно Соблазнитель 2
      Соблазнитель 2 скачать торрент
      Соблазнитель 2 смотреть онлайн
      Cкачать фильм Соблазнитель 2 бесплатно
      Соблазнитель 2 скачать торрент в хорошем качестве
      Соблазнитель 2 смотреть онлайн бесплатно в хорошем качестве


      Вы не можете начинать темы
      Вы не можете отвечать на сообщения
      Вы не можете редактировать свои сообщения
      Вы не можете удалять свои сообщения
      Вы не можете голосовать в опросах
      Вы не можете прикреплять файлы к сообщениям
      Вы можете скачивать файлы