Всегда рабочее зеркало без VPN и Proxy просто перед .vidak.icu напиши любое слово или цифру, Пример http://90gr.vidak.icu

MVO

2 сезон

1 сезон

1

1 сезон

iTunes

2 сезон

13

1 сезон

Deluxe

pack

Рекомендуем

Пиратка

30

ВАЖНО

RePack

MK11

RePack

jed

RePack

fifa19

RePack

RDR2

RePack

NEED FOR SPEED™ PAYBACK

Кинопоиск HD

6 сезон

 Острые козырьки 6 сезон

Все сериалы

все сериалы на PB.wtf

RePack

FAR CRY 5

Anonymous, нам критически не хватает 5601 руб. на оплату серверов и переферии за Апрель, помоги нам пожалуйста, вся надежда только на тебя. В благодарность мы отключим тебе всю рекламу на сайте!

×
  
Magnet ссылка

Железный человек 3 / Iron Man 3 (Шейн Блэк / Shane Black) [ 2013 , США, Китай , фантастика, боевик, приключения , BDRip-AVC, Дубляж, лицензия] pb.wtf

Железный человек 3 через торрент pb.wtf

Размер: 2.18 GB | Добавлен: 8 лет 8 мес. назад | Торрент скачан:1018 раз
Смотреть онлайн Железный человек 3 | Скачать    Ребята, помогите собрать деньги на оплату серверов!!!

27-08-2013 09:55 Железный человек 3 Скачать торрент  

Железный человек 3 / Iron Man 3«Герой будет сражен»
  • Год выпуска: 2013
  • Страна: США, Китай / DMG Entertainment, Marvel Studios Inc, Noble Media, Outlaw Sinema, Paramount Pictures
  • Жанр: фантастика, боевик, приключения
  • Продолжительность: 02:10:32
  • Перевод: Дубляж, Лицензия
  • Субтитры: Английские, русские (полные + форс.), украинские (полные + форс.)
  • Режиссер: Шейн Блэк / Shane Black
  • В ролях: Роберт Дауни мл., Гвинет Пэлтроу, Дон Чидл, Гай Пирс, Бен Кингсли, Ребекка Холл, Пол Беттани, Джон Фавро, Уильям Сэдлер, Джеймс Бэдж Дэйл
  • Описание: Когда мир Старка рушится на его глазах по вине неизвестных противников, Тони жаждет найти виновных и свести с ними счеты. Оказавшись в безвыходной ситуации, Старк может рассчитывать только на себя и свою изобретательность, чтобы защитить тех, кто ему дорог. Это становится настоящим испытанием для героя, которому придется не только сражаться с коварным врагом, но и разобраться в себе, чтобы найти ответ на вопрос, который давно его тревожит: что важнее - человек или костюм?
  • Рейтинг
    kinopoisk.ru: 7.684 (66 588)
    imdb.com: 7.50 (232 353)
    MPAA: PG-13 - Детям до 13 лет просмотр не желателен
  • Качество: BDRip-AVC
  • Формат: MKV
  • Видео кодек: х.264
  • Аудио кодек: AC3
  • Видео: х.264, 1200x500 (2.40:1), 23,976 fps, 1497 Кbps, 0.104 bit/pixel
  • Аудио №1: 48 kHz, AC3 Dolby Digital, 3/2 (L,C,R,l,r) + LFE ch, 448.00 kbps | RUS
  • Аудио №2: 48 kHz, AC3 Dolby Digital, 3/2 (L,C,R,l,r) + LFE ch, 448.00 kbps | ENG

    General
    Unique ID : 201046960028364140721242246541192562795 (0x97403C6E141A51F3B7FE107897FD886B)
    Complete name : D:Zheleznyj.Chelovek.3.2013.DUAL.BDRip.x264.-HELLYWOOD.mkv
    Format : Matroska
    Format version : Version 4 / Version 2
    File size : 2.18 GiB
    Duration : 2h 10mn
    Overall bit rate : 2 396 Kbps
    Movie name : HELLYWOOD - rip by potroks
    Encoded date : UTC 2013-08-20 20:15:09
    Writing application : mkvmerge v5.9.0 ('On The Loose') built on Dec 15 2012 16:39:58
    Writing library : libebml v1.3.0 + libmatroska v1.4.0

    Video
    ID : 1
    Format : AVC
    Format/Info : Advanced Video Codec
    Format profile : High@L4.1
    Format settings, CABAC : Yes
    Format settings, ReFrames : 11 frames
    Codec ID : V_MPEG4/ISO/AVC
    Duration : 2h 10mn
    Bit rate : 1 497 Kbps
    Width : 1 200 pixels
    Height : 500 pixels
    Display aspect ratio : 2.40:1
    Frame rate : 23.976 fps
    Color space : YUV
    Chroma subsampling : 4:2:0
    Bit depth : 8 bits
    Scan type : Progressive
    Bits/(Pixel*Frame) : 0.104
    Stream size : 1.32 GiB (61%)
    Title : Iron Man 3
    Writing library : x264 core 130 r2273 b3065e6
    Encoding settings : cabac=1 / ref=11 / deblock=1:-2:-1 / analyse=0x3:0x133 / me=umh / subme=11 / psy=1 / psy_rd=1.05:0.01 / mixed_ref=1 / me_range=32 / chroma_me=1 / trellis=2 / 8x8dct=1 / cqm=0 / deadzone=21,11 / fast_pskip=0 / chroma_qp_offset=-3 / threads=6 / lookahead_threads=1 / sliced_threads=0 / nr=0 / decimate=1 / interlaced=0 / bluray_compat=0 / constrained_intra=0 / bframes=12 / b_pyramid=2 / b_adapt=2 / b_bias=0 / direct=3 / weightb=1 / open_gop=0 / weightp=2 / keyint=250 / keyint_min=23 / scenecut=40 / intra_refresh=0 / rc_lookahead=60 / rc=2pass / mbtree=0 / bitrate=1497 / ratetol=1.0 / qcomp=0.70 / qpmin=0 / qpmax=69 / qpstep=4 / cplxblur=20.0 / qblur=0.5 / vbv_maxrate=50000 / vbv_bufsize=62500 / nal_hrd=none / ip_ratio=1.35 / pb_ratio=1.25 / aq=2:0.90
    Language : English
    Default : Yes
    Forced : No

    Audio #1
    ID : 2
    Format : AC-3
    Format/Info : Audio Coding 3
    Mode extension : CM (complete main)
    Codec ID : A_AC3
    Duration : 2h 10mn
    Bit rate mode : Constant
    Bit rate : 448 Kbps
    Channel(s) : 6 channels
    Channel positions : Front: L C R, Side: L R, LFE
    Sampling rate : 48.0 KHz
    Bit depth : 16 bits
    Compression mode : Lossy
    Stream size : 418 MiB (19%)
    Title : Dub | DD 5.1 @ 448 kbps - Blu-Ray EUR
    Language : Russian
    Default : Yes
    Forced : Yes

    Audio #2
    ID : 3
    Format : AC-3
    Format/Info : Audio Coding 3
    Mode extension : CM (complete main)
    Codec ID : A_AC3
    Duration : 2h 10mn
    Bit rate mode : Constant
    Bit rate : 448 Kbps
    Channel(s) : 6 channels
    Channel positions : Front: L C R, Side: L R, LFE
    Sampling rate : 48.0 KHz
    Bit depth : 16 bits
    Compression mode : Lossy
    Stream size : 418 MiB (19%)
    Title : Original | DD 5.1 @ 448 kbps
    Language : English
    Default : No
    Forced : No

    Text #1
    ID : 4
    Format : UTF-8
    Codec ID : S_TEXT/UTF8
    Codec ID/Info : UTF-8 Plain Text
    Title : Forced
    Language : Russian
    Default : Yes
    Forced : Yes

    Text #2
    ID : 5
    Format : UTF-8
    Codec ID : S_TEXT/UTF8
    Codec ID/Info : UTF-8 Plain Text
    Language : Russian
    Default : No
    Forced : No

    Text #3
    ID : 6
    Format : UTF-8
    Codec ID : S_TEXT/UTF8
    Codec ID/Info : UTF-8 Plain Text
    Title : SDH
    Language : English
    Default : No
    Forced : No

    Text #4
    ID : 7
    Format : UTF-8
    Codec ID : S_TEXT/UTF8
    Codec ID/Info : UTF-8 Plain Text
    Language : English
    Default : No
    Forced : No

    Text #5
    ID : 8
    Format : UTF-8
    Codec ID : S_TEXT/UTF8
    Codec ID/Info : UTF-8 Plain Text
    Title : Forced
    Language : Ukrainian
    Default : No
    Forced : No

    Text #6
    ID : 9
    Format : UTF-8
    Codec ID : S_TEXT/UTF8
    Codec ID/Info : UTF-8 Plain Text
    Language : Ukrainian
    Default : No
    Forced : No
    pb.wtf



  • Скачать Железный человек 3 через торрент http://i6.imageban.ru/out/2013/08/27/f126d76da5e11f301d0fba34020b208a.png Скачать, смотреть онлайн Железный человек 3 бесплантно в хорошем качестве Описание: Когда мир Старка рушится на его глазах по вине неизвестных противников, Тони жаждет найти виновных и свести с ними счеты. ... 10 10 26
    Info! Золотая раздача, скачанное не засчитывается.
    Торрент: Зарегистрирован [2013-08-27 09:55] · скачан: 1 018 раз
    Статус: √ проверено
    Размер: 2.18 GB
    Как cкачать? Как скачать Железный человек 3 через торрент | UTorrent

    % Раздел Тема Автор DL S | L
    Ultra HD (UHD: 2K, 4K, 8K) — видео сверхвысокой чёткости [ 68.28 GB ] Железный человек 3 / Iron Man 3 [2013 UHD BDRemux 2160p] DUB [] +AVO [Ю. Живов] bober100 Скачать
    1 | 1
    Ultra HD (UHD: 2K, 4K, 8K) — видео сверхвысокой чёткости [ 13.89 GB ] Железный человек 3 / Iron Man 3 [2013 UHD BDRip 2160p] DUB [] +AVO [Ю. Живов] bober100 Скачать
    1 | 1
    Фильмы с авторской озвучкой [ 1.46 GB ] Железный человек 3 / Iron Man 3 [2013 HDRip] [AVO] killermax2013 Скачать
    1 | 0
    Фильмы с авторской озвучкой [ 2.17 GB ] Железный человек 3 / Iron Man Three [2013 BDRip Авторский одноголосый "Ю.Живов"] coc900 Скачать
    1 | 0
    Фильмы 2013 [DVDrip, WEB-DLRip, HDrip] [ 1.46 GB ] Железный человек 3 / Iron Man 3 [ 2013 Китай HDRip ] DUB [ лицензия ] Ворон Скачать
    1 | 0
    3D Фильмы [ 43.87 GB ] Железный человек 3 / Iron Man 3 [2013 Blu-ray 3D DUB] [ISO] / BD2D|3D Half OverUnder / Вертикальная анаморфная стереопара лисяра Скачать
    1 | 0
    3D Фильмы [ 6.69 GB ] Железный человек 3 / Iron Man 3 [2013 BDRip 1080p лицензия] Half OverUnder / Вертикальная анаморфная стереопара slaventi-69 Скачать
    1 | 0


    Последний раз редактировалось: МАКС1 (2013-08-27 10:09), всего редактировалось 1 раз

    28-11-2019 20:33  

    Отключить всю рекламу на сайте

    27-08-2013 10:04 Железный человек 3 Скачать торрент  

    Запрещается!

    *Создавать и размещать раздачи с применением красного цвета. Существует палитра цветов.
    Красный цвет, это цвет Администрации
    Поправил
    pb.wtf



    27-08-2013 10:08 Железный человек 3 Скачать торрент  

    Спасибо pb.wtf



    02-10-2014 16:43 Железный человек 3 Скачать торрент  

    При полном уважении к автору темы.
    Качество картинки полное г....
    Не качайте этот релизpb.wtf



      Дорогой пользователь! Огромная просьба, поблагодарите релизера, оцените раздачу и оставьте свои комментарий, если Вы скачали Железный человек 3 через торрент бесплатно!
      Комментировать посты могут только пользователи прошедшие не сложную регистрацию
      Показать сообщения:    

      Железный человек 3 через торрент
      Скачать бесплатно Железный человек 3
      Железный человек 3 скачать торрент
      Железный человек 3 смотреть онлайн
      Cкачать фильм Железный человек 3 бесплатно
      Железный человек 3 скачать торрент в хорошем качестве
      Железный человек 3 смотреть онлайн бесплатно в хорошем качестве


      Вы не можете начинать темы
      Вы не можете отвечать на сообщения
      Вы не можете редактировать свои сообщения
      Вы не можете удалять свои сообщения
      Вы не можете голосовать в опросах
      Вы не можете прикреплять файлы к сообщениям
      Вы можете скачивать файлы