MEGA SALE -50% FORZA HORIZON 4 ULTIMATE+ВСЕ DLC+ОНЛАЙН всего за 599р. 299 руб. (супер цена). Внимание количество ограничено!!!

iTunes

1+1

iTunes

мы

iTunes

1

iTunes

Чернобыль

iTunes

Ральф против интернета

Лицензия

ПШазам

Лицензия

Игра престолов

Лицензия

30
pack

ВАЖНО

!!Акция!!

Alien_RageХит недели

RePack

Resident Evil 21

ИГРА 18+

pack

RePack

Metro:Exodus

!!Акция!!

Alien_Rage

RePack

fifa19

RePack

Assassins Creed: Odyssey

RePack

NEED FOR SPEED™ PAYBACK

3 сезон

9 сезон

Бесстыжие 9 сезон

Все сериалы

все сериалы на PB.wtf

RePack

FAR CRY 5
Ребята, катастрофически не хватает 7730р. для оплаты серверов за АВГУСТ (всвязи с блокировками трафик упал в 3 раза), 1-2р., выручайте.
  

Хороший, плохой, злой / Il buono, il brutto, il cattivo (Серджио Леоне / Sergio Leone) [1966 г., вестерн, DVDRip] [AVO] (А.Михалев) pb.wtf

Хороший, плохой, злой через торрент pb.wtf

Размер: 2.5 GB | Добавлен: 6 лет назад | Торрент скачан:150 раз
Скачать  

27-08-2013 17:28 Хороший, плохой, злой Скачать торрент  

Хороший, плохой, злой / Il buono, il brutto, il cattivo
Год выпуска: 1966
Страна: Италия, Испания, Германия
Жанр: вестерн
Продолжительность: 02:58:41
Перевод : Авторский (одноголосный, закадровый) [А.Михалев]

Режиссер: Серджио Леоне / Sergio Leone

В ролях: Эли Уоллах, Клинт Иствуд, Ли Ван Клиф, Марио Брега, Рада Рассимов, Альдо Джуффре, Луиджи Пистилли, Антонио Касас, Антонио Молино Рохо, Антонио Казале

Описание: Заключительная часть «долларовой трилогии» Серджио Леоне. Сюжет классический для вестерна: пути трех харезматичных мачо, ищущих на Диком Западе достойную долю, пересекаются в желании завладеть кладом. Со всеми вытекающими...
Наверное один их лучших так называемых спагетти-вестернов (и вестернов Серджио Леоне, в частности), стоящий в одном ряду с лучшими голливудскими вестернами.




Качество видео: DVDRip
Формат видео: AVI
Видео кодек: XviD
Аудио кодек: AC3
Видео: 720x304 (2.37:1), 23.976 fps, XviD build 50 ~1548 kbps avg, 0.29 bit/pixel
Аудио : 48 kHz, AC3 Dolby Digital, 3/2 (L,C,R,l,r) + LFE ch, ~448.00 kbps avg
E:INTERNETHoroshiy.Plohoy.Zloy.1966.XviD.DVDRip.avi
General
Complete name : E:INTERNETHoroshiy.Plohoy.Zloy.1966.XviD.DVDRip.avi
Format : AVI
Format/Info : Audio Video Interleave
Format profile : OpenDML
File size : 2.50 GiB
Duration : 2h 58mn
Overall bit rate : 2 004 Kbps
Movie name : Хороший, плохой, злой / The Good, the Bad and the Ugly (1966)
Writing application : VirtualDubMod 1.5.10.2 (build 2540/release)
Writing library : VirtualDubMod build 2540/release
Video #0
ID : 0
Format : MPEG-4 Visual
Format profile : Advanced Simple@L5
Format settings, BVOP : 1
Format settings, QPel : No
Format settings, GMC : No warppoints
Format settings, Matrix : Custom
Codec ID : DIVX
Codec ID/Info : Project Mayo
Codec ID/Hint : DivX 4
Duration : 2h 58mn
Bit rate : 1 544 Kbps
Width : 720 pixels
Height : 304 pixels
Display aspect ratio : 2.35:1
Frame rate : 23.976 fps
Color space : YUV
Chroma subsampling : 4:2:0
Bit depth : 8 bits
Scan type : Progressive
Compression mode : Lossy
Bits/(Pixel*Frame) : 0.294
Stream size : 1.93 GiB (77%)
Writing library : XviD 1.2.1 (UTC 2008-12-04)
Audio #1
ID : 1
Format : AC-3
Format/Info : Audio Coding 3
Mode extension : CM (complete main)
Format settings, Endianness : Big
Codec ID : 2000
Duration : 2h 58mn
Bit rate mode : Constant
Bit rate : 448 Kbps
Channel(s) : 6 channels
Channel positions : Front: L C R, Side: L R, LFE
Sampling rate : 48.0 KHz
Bit depth : 16 bits
Compression mode : Lossy
Stream size : 573 MiB (22%)
Alignment : Split accross interleaves
Interleave, duration : 42 ms (1.00 video frame)
Interleave, preload duration : 500 ms
pb.wtf



Скачать Хороший, плохой, злой через торрент http://s019.radikal.ru/i607/1308/b2/05beabe204e0.jpg Скачать фильм Хороший, плохой, злой через торрент бесплантно в хорошем качестве Описание: Заключительная часть «долларовой трилогии» Серджио Леоне. Сюжет классический для вестерна: пути трех харезматичных мачо, ищущих ... 9.3 10 12
Info! Золотая раздача, скачанное не засчитывается.
Торрент: Зарегистрирован [2013-08-27 17:28] · скачан: 150 раз
Статус: √ проверено
Размер: 2.5 GB
Как cкачать? Как скачать Хороший, плохой, злой через торрент | qTorrent

% Раздел Тема Автор DL S | L
Фильмы [HD 720p, 1080p] (Хороший звук DUB, MVO) [ 13.24 GB ] Хороший плохой злой / The Good The Bad and The Ugly / Il buono il brutto il cattivo [1966 BDRip 720p от еnvy / NNNB] [Mondo HE] / MVO DVO AVO еnvy Скачать
6 | 0
Фильмы с авторской озвучкой [ 2.92 GB ] Хороший плохой злой / Il buono il brutto il cattivo / The Good the Bad and the Ugly [1966 DVDRip] 3x[AVO] killermax2013 Скачать
1 | 0
Фильмы до 2000 г. [ 2.83 GB ] Хороший плохой злой / Il buono il brutto il cattivo [1966 BDRip] [Extended US Version ] [DVO] + [MVO] killermax2013 Скачать
1 | 0
Фильмы (BDRip, HDrip-AVC) (48-60 fps) [ 3.95 GB ] Хороший плохой злой / Il buono il brutto il cattivo [1966 BDRip-AVC 60fps MVO Extended English version] от R.G. HD-Films Tiberiumsun69 Скачать
44 | 0
Фильмы (DVD фильмы) [ 4.35 GB ] Хороший плохой злой / Buono il brutto il cattivo Il [1966 DVD5] johnlev Скачать
1 | 0


>> Регистрируемся здесь <<






Отзывы и комментарии о схеме читаем и пишем здесь: ---> Отзывы и комментарии о схеме

Новые благодарочки в телеграм довольных пользователей:
скриншот   скриншот   скриншот   скриншот   скриншот

28-08-2013 08:52 Хороший, плохой, злой Скачать торрент  

Фильм легенда)))pb.wtf



    Дорогой пользователь! Огромная просьба, поблагодарите релизера, оцените раздачу и оставьте свои комментарий, если Вы скачали Хороший, плохой, злой через торрент бесплатно! Внесите свою лепту в развитие PiratBit!
    Комментировать посты могут только пользователи прошедшие не сложную регистрацию
    Показать сообщения:    

    Хороший, плохой, злой через торрент
    Скачать бесплатно Хороший, плохой, злой
    Хороший, плохой, злой скачать торрент
    Хороший, плохой, злой смотреть онлайн
    Cкачать фильм Хороший, плохой, злой бесплатно
    Хороший, плохой, злой скачать торрент в хорошем качестве
    Хороший, плохой, злой смотреть онлайн бесплатно в хорошем качестве


    Вы не можете начинать темы
    Вы не можете отвечать на сообщения
    Вы не можете редактировать свои сообщения
    Вы не можете удалять свои сообщения
    Вы не можете голосовать в опросах
    Вы не можете прикреплять файлы к сообщениям
    Вы можете скачивать файлы