Мега распродажа FORZA HORIZON 4 ULTIMATE+ВСЕ DLC+ОНЛАЙН всего за 499р. 349 руб. (супер цена). Внимание количество ограничено!!!

iTunes

1+1

iTunes

мы

iTunes

1

1 сезон

Чернобыль

1 сезон

Ральф против интернета

Лицензия

ПШазам

8 сезон

Игра престолов

Лицензия

30
pack

ВАЖНО

!!Акция!!

Alien_RageХит недели

RePack

Resident Evil 21

ИГРА 18+

pack

RePack

Metro:Exodus

!!Акция!!

Alien_Rage

RePack

fifa19

RePack

Assassins Creed: Odyssey

RePack

NEED FOR SPEED™ PAYBACK

3 сезон

9 сезон

Бесстыжие 9 сезон

Все сериалы

все сериалы на PB.wtf

RePack

FAR CRY 5
Ребята, катастрофически не хватает 2730р. для оплаты серверов за ИЮНЬ (всвязи с блокировками трафик упал в 3 раза), 1-2р., выручайте.
  

Рубин и Эд / Rubin & Ed (Трент Харрис / Trent Harris) [1991, комедия, VHSRip] [VO] (Хэм) pb.wtf

Рубин и Эд через торрент pb.wtf

Размер: 683 MB | Добавлен: 5 лет 10 мес. назад | Торрент скачан:9 раз
Скачать  

28-08-2013 08:39 Рубин и Эд Скачать торрент  

Рубин и Эд / Rubin & Ed
Год выпуска: 1991
Страна: Великобритания
Жанр: комедия
Продолжительность: 01:21:52
Перевод: Одноголосый (закадровый) [Хэм]
Cубтитры: нет

Режиссер: Трент Харрис / Trent Harris

В ролях: Криспин Гловер, Говард Хессеман, Карен Блэк, Майкл Грин

Описание: Двое неудачников – Эд и Рубин – отправляются в пустыню, чтобы похоронить скончавшегося кота Рубина в «правильном» месте.



Качество видео: VHSRip
Формат видео: AVI
Видео кодек: DIVX
Аудио кодек: MP3
Видео: DIVX, 720x544, 4:3, 29,970 fps, 994 kbps
Аудио: MP3 , 48 kHz, 160 kbps, 2.0
General
Complete name : D:MovsRubin.And.Ed.1991.Rus.avi
Format : AVI
Format/Info : Audio Video Interleave
File size : 683 MiB
Duration : 1h 21mn
Overall bit rate : 1 166 Kbps
Writing application : VirtualDubMod 1.5.4.1 (build 2178/release)
Writing library : VirtualDub build 32842/release
Video
ID : 0
Format : MPEG-4 Visual
Format settings, BVOP : 1
Format settings, QPel : No
Format settings, GMC : No warppoints
Format settings, Matrix : Default (H.263)
Muxing mode : Packed bitstream
Codec ID : DX50
Codec ID/Hint : DivX 5
Duration : 1h 21mn
Bit rate : 994 Kbps
Width : 720 pixels
Height : 544 pixels
Display aspect ratio : 4:3
Frame rate : 29.970 fps
Color space : YUV
Chroma subsampling : 4:2:0
Bit depth : 8 bits
Scan type : Progressive
Compression mode : Lossy
Bits/(Pixel*Frame) : 0.085
Stream size : 582 MiB (85%)
Writing library : DivX 6.8.5 (UTC 2009-08-20)
Audio
ID : 1
Format : MPEG Audio
Format version : Version 1
Format profile : Layer 3
Mode : Joint stereo
Codec ID : 55
Codec ID/Hint : MP3
Duration : 1h 21mn
Bit rate mode : Constant
Bit rate : 160 Kbps
Channel(s) : 2 channels
Sampling rate : 48.0 KHz
Compression mode : Lossy
Stream size : 93.7 MiB (14%)
Alignment : Split accross interleaves
Interleave, duration : 33 ms (1.00 video frame)
Interleave, preload duration : 500 ms
pb.wtf



Скачать Рубин и Эд через торрент http://i47.fastpic.ru/big/2013/0722/25/bb0af9d84f3b6c116c0c92c19392dc25.jpg Скачать фильм Рубин и Эд через торрент бесплантно в хорошем качестве Описание: Двое неудачников – Эд и Рубин – отправляются в пустыню, чтобы похоронить скончавшегося кота Рубина в «правильном» месте. ... 10 10 1
Info! Золотая раздача, скачанное не засчитывается.
Торрент: Зарегистрирован [2013-08-28 08:39] · скачан: 9 раз
Статус: √ проверено
Размер: 683 MB
Как cкачать? Как скачать Рубин и Эд через торрент | qTorrent


>> Регистрируемся здесь <<






Отзывы и комментарии о схеме читаем и пишем здесь: ---> Отзывы и комментарии о схеме

Новые благодарочки в телеграм довольных пользователей:
скриншот   скриншот   скриншот   скриншот   скриншот
    Дорогой пользователь! Огромная просьба, поблагодарите релизера, оцените раздачу и оставьте свои комментарий, если Вы скачали Рубин и Эд через торрент бесплатно! Внесите свою лепту в развитие PiratBit!
    Комментировать посты могут только пользователи прошедшие не сложную регистрацию
    Показать сообщения:    

    Рубин и Эд через торрент
    Скачать бесплатно Рубин и Эд
    Рубин и Эд скачать торрент
    Рубин и Эд смотреть онлайн
    Cкачать фильм Рубин и Эд бесплатно
    Рубин и Эд скачать торрент в хорошем качестве
    Рубин и Эд смотреть онлайн бесплатно в хорошем качестве


    Вы не можете начинать темы
    Вы не можете отвечать на сообщения
    Вы не можете редактировать свои сообщения
    Вы не можете удалять свои сообщения
    Вы не можете голосовать в опросах
    Вы не можете прикреплять файлы к сообщениям
    Вы можете скачивать файлы