1 сезон

1 сезон

iTunes

1

КиноПоиск HD

Кинопоиск HD

iTunes

13

1 сезон

RePack

30

Новинка

ВАЖНО

ИГРА 18+

pack

RePack

MK11
pack

Легкие деньги

RePack

jed

RePack

fifa19

RePack

RDR2

RePack

NEED FOR SPEED™ PAYBACK

4 сезон

9 сезон

Бесстыжие 9 сезон

Все сериалы

все сериалы на PB.wtf

RePack

FAR CRY 5
  
Magnet ссылка

Хелтер Скелтер / Helter Skelter [Director's cut] (Джон Грэй /John Gray) [2004 г., криминал, история, драма, DVDRip, DVO] pb.wtf

Хелтер Скелтер через торрент pb.wtf

Размер: 1.46 GB | Добавлен: 7 лет 7 мес. назад | Торрент скачан:28 раз
Скачать  

28-08-2013 11:48 Хелтер Скелтер Скачать торрент  

Хелтер Скелтер / Helter Skelter [Director's cut]
Год выпуска: 2004
Страна: США
Жанр: криминал, история, драма
Продолжительность: 02:16:46
Перевод: Профессиональный двухголосый(закадровый)

Режиссер: Джон Грэй /John Gray




В ролях: Джереми Дэвис, Клеа ДюВалл, Эллисон Смит, Фрэнк Зигер, Эрик Дэйн, Мэри Линн Райскаб, Майкл Уэстон, Хэл Озсэн, Кристал Риверз, Роберт Джой, Грэм Беккел, Изабелла Хофманн,

Описание: История убийства основана на реальных событиях произошедших в августе 1969 рода, и описанных в книге Винcента Буглиози. Новая версия фильма охватывает более широкий вид того зверского убийства «семейки», о возможных мотивах действия Чарли Мэнсона на фоне расовой неприязни.

Качество: DVDRip
Формат: AVI
Видео кодек: XviD
Аудио кодек: MP3
Видео: 720x400 (1.80:1), 23.976 fps, 1391 kbps, 0.20 bit/pix
Аудио#1: 48 kHz, MPEG Layer 3, 2 ch, 128.00 kbps
General
Complete name : Helter_Skelter_1.46_by_max1wq.avi
Format : AVI
Format/Info : Audio Video Interleave
File size : 1.46 GiB
Duration : 2h 16mn
Overall bit rate : 1 529 Kbps
Writing application : VirtualDubMod 1.5.10.2 (build 2540/release)
Writing library : VirtualDubMod build 2540/release

Video
ID : 0
Format : MPEG-4 Visual
Format profile : Advanced Simple@L5
Format settings, BVOP : 1
Format settings, QPel : No
Format settings, GMC : No warppoints
Format settings, Matrix : Custom
Codec ID : XVID
Codec ID/Hint : XviD
Duration : 2h 16mn
Bit rate : 1 392 Kbps
Width : 720 pixels
Height : 400 pixels
Display aspect ratio : 16:9
Frame rate : 23.976 fps
Color space : YUV
Chroma subsampling : 4:2:0
Bit depth : 8 bits
Scan type : Progressive
Compression mode : Lossy
Bits/(Pixel*Frame) : 0.202
Stream size : 1.33 GiB (91%)
Writing library : XviD 1.2.1 (UTC 2008-12-04)

Audio
ID : 1
Format : MPEG Audio
Format version : Version 1
Format profile : Layer 3
Codec ID : 55
Codec ID/Hint : MP3
Duration : 2h 16mn
Bit rate mode : Constant
Bit rate : 128 Kbps
Channel(s) : 2 channels
Sampling rate : 48.0 KHz
Compression mode : Lossy
Stream size : 125 MiB (8%)
Alignment : Aligned on interleaves
Interleave, duration : 42 ms (1.00 video frame)
Interleave, preload duration : 504 ms


Хелтер Скелтер скачать торрент


pb.wtf



Скачать Хелтер Скелтер через торрент https://pic.kartinco.top/images/3/jhmcurkpjy.png Скачать фильм Хелтер Скелтер через торрент бесплантно в хорошем качестве Описание: История убийства основана на реальных событиях произошедших в августе 1969 рода, и описанных в книге Винcента Буглиози. Новая ... 10 10 4
Info! Золотая раздача, скачанное не засчитывается.
Торрент: Зарегистрирован [2013-08-28 11:48] · скачан: 28 раз
Статус: √ проверено
Размер: 1.46 GB
Как cкачать? Как скачать Хелтер Скелтер через торрент | UTorrent

28-11-2019 20:33  

Отключить всю рекламу на сайте

    Дорогой пользователь! Огромная просьба, поблагодарите релизера, оцените раздачу и оставьте свои комментарий, если Вы скачали Хелтер Скелтер через торрент бесплатно! Внесите свою лепту в развитие PiratBit!
    Комментировать посты могут только пользователи прошедшие не сложную регистрацию
    Показать сообщения:    

    Хелтер Скелтер через торрент
    Скачать бесплатно Хелтер Скелтер
    Хелтер Скелтер скачать торрент
    Хелтер Скелтер смотреть онлайн
    Cкачать фильм Хелтер Скелтер бесплатно
    Хелтер Скелтер скачать торрент в хорошем качестве
    Хелтер Скелтер смотреть онлайн бесплатно в хорошем качестве


    Вы не можете начинать темы
    Вы не можете отвечать на сообщения
    Вы не можете редактировать свои сообщения
    Вы не можете удалять свои сообщения
    Вы не можете голосовать в опросах
    Вы не можете прикреплять файлы к сообщениям
    Вы можете скачивать файлы