Ссылка на приватное зеркало нашего сайта всего за 1$. Внимание количество ограничено!!!

2 сезон

iTunes

1 сезон

1

2 сезон

2 сезон

iTunes

1 сезон

RePack

30

Новинка

ВАЖНО

ИГРА 18+

pack

RePack

MK11
pack

Забери бонус

RePack

jed

!!Акция!!

Alien_Rage

RePack

fifa19

RePack

Assassins Creed: Odyssey

RePack

NEED FOR SPEED™ PAYBACK

4 сезон

9 сезон

Бесстыжие 9 сезон

Все сериалы

все сериалы на PB.wtf

RePack

FAR CRY 5
  

Случайное убийство / Murder by Numbers (Барбет Шрёдер / Barbet Schroeder) [2002 г., Триллер, драма, криминал, HDTVRip 720p, Dub,Mvo,Original Eng,Sub] pb.wtf

Случайное убийство через торрент pb.wtf

Размер: 5.7 GB | Добавлен: 7 лет 3 мес. назад | Торрент скачан:48 раз
Скачать  

29-08-2013 15:22 Случайное убийство Скачать торрент  

Случайное убийство / Murder by Numbers
Год выпуска: 2002
Страна: США
Жанр:Триллер, драма, криминал
Продолжительность: 01:55:11
Перевод: Профессиональный (полное дублирование), Профессиональный (многоголосый закадровый)
Субтитры: русские (UTF8 /SRT) английские (UTF8 /SRT)

Режиссер: Барбет Шрёдер / Barbet Schroeder




В ролях: Сандра Буллок /Sandra Bullock/, Бен Чаплин /Ben Chaplin/, Райан Гослинг /Ryan Gosling/, Майкл Питт /Michael Pitt/, Агнес Брукнер /Agnes Bruckner/, Крис Пенн /Chris Penn/,

Описание: Два подростка спланировали и совершили идеальное убийство только затем, чтобы вовлечь полицейских в занимательную интеллектуальную игру. На каждом шагу они подбрасывают копам ложные улики. Одного не учли преступники: там, где бессилен ум, может помочь интуиция. За дело берется женщина-детектив. Чутье подсказывает ей, что кто-то хочет пустить полицию по ложному следу

Качество: HDTVRip 720p
Формат: MKV
Видео кодек: AVC
Аудио кодек: AC3
Видео: 1280 x 724p (1:76) at 25 fps 5815 kb/s 0.25 b/px
Аудио#1: 48 kHz, AC3, 3/2 (L,C,R,l,r) + LFE ch, ~384.00 kbps avg /русский/ Dub
Аудио#2: 48 kHz, AC3, 3/2 (L,C,R,l,r) + LFE ch, ~384.00 kbps avg /русский/ MVO
Аудио#3: 48 kHz, AC3, 3/2 (L,C,R,l,r) + LFE ch, ~384.00 kbps avg /английский/ Original




General
Unique ID : 197510572578051496951090056158450114706 (0x9497271131BBDE239C640FD963BD6092)
Complete name : murder_HDTVRip_AVC.mkv
Format : Matroska
Format version : Version 2
File size : 5.70 GiB
Duration : 1h 55mn
Overall bit rate : 7 086 Kbps
Encoded date : UTC 2010-10-15 21:14:38
Writing application : mkvmerge v3.3.0 ('Language') built on Mar 24 2010 14:59:24
Writing library : libebml v0.8.0 + libmatroska v0.9.0

Video
ID : 1
Format : AVC
Format/Info : Advanced Video Codec
Format profile : High@L4.2
Format settings, CABAC : Yes
Format settings, ReFrames : 9 frames
Codec ID : V_MPEG4/ISO/AVC
Duration : 1h 55mn
Bit rate : 5 793 Kbps
Width : 1 280 pixels
Height : 724 pixels
Display aspect ratio : 16:9
Frame rate mode : Constant
Frame rate : 25.000 fps
Color space : YUV
Chroma subsampling : 4:2:0
Bit depth : 8 bits
Scan type : Progressive
Bits/(Pixel*Frame) : 0.250
Stream size : 4.66 GiB (82%)
Title : Otschet_ubiistvam_HDTVRip_AVC
Writing library : x264 core 105 r1724 b02df7b
Encoding settings : cabac=1 / ref=9 / deblock=1:-3:-2 / analyse=0x3:0x133 / me=umh / subme=10 / psy=1 / psy_rd=1.00:0.25 / mixed_ref=1 / me_range=32 / chroma_me=1 / trellis=2 / 8x8dct=1 / cqm=0 / deadzone=21,11 / fast_pskip=1 / chroma_qp_offset=-4 / threads=6 / sliced_threads=0 / nr=0 / decimate=1 / interlaced=0 / constrained_intra=0 / bframes=9 / b_pyramid=2 / b_adapt=2 / b_bias=0 / direct=1 / weightb=1 / open_gop=0 / weightp=2 / keyint=250 / keyint_min=25 / scenecut=40 / intra_refresh=0 / rc=crf / mbtree=0 / crf=18.7 / qcomp=0.70 / qpmin=10 / qpmax=51 / qpstep=4 / ip_ratio=1.40 / pb_ratio=1.30 / aq=1:1.00
Language : English
Default : No
Forced : No
Matrix coefficients : BT.709

Audio #1
ID : 2
Format : AC-3
Format/Info : Audio Coding 3
Mode extension : CM (complete main)
Format settings, Endianness : Big
Codec ID : A_AC3
Duration : 1h 55mn
Bit rate mode : Constant
Bit rate : 384 Kbps
Channel(s) : 6 channels
Channel positions : Front: L C R, Side: L R, LFE
Sampling rate : 48.0 KHz
Bit depth : 16 bits
Compression mode : Lossy
Stream size : 316 MiB (5%)
Title : Dub
Language : Russian
Default : Yes
Forced : No

Audio #2
ID : 3
Format : AC-3
Format/Info : Audio Coding 3
Mode extension : CM (complete main)
Format settings, Endianness : Big
Codec ID : A_AC3
Duration : 1h 55mn
Bit rate mode : Constant
Bit rate : 384 Kbps
Channel(s) : 6 channels
Channel positions : Front: L C R, Side: L R, LFE
Sampling rate : 48.0 KHz
Bit depth : 16 bits
Compression mode : Lossy
Stream size : 316 MiB (5%)
Title : MVO
Language : Russian
Default : No
Forced : No

Audio #3
ID : 4
Format : AC-3
Format/Info : Audio Coding 3
Mode extension : CM (complete main)
Format settings, Endianness : Big
Codec ID : A_AC3
Duration : 1h 55mn
Bit rate mode : Constant
Bit rate : 384 Kbps
Channel(s) : 6 channels
Channel positions : Front: L C R, Side: L R, LFE
Sampling rate : 48.0 KHz
Bit depth : 16 bits
Compression mode : Lossy
Stream size : 316 MiB (5%)
Title : Original
Language : English
Default : No
Forced : No

Text #1
ID : 5
Format : UTF-8
Codec ID : S_TEXT/UTF8
Codec ID/Info : UTF-8 Plain Text
Title : Russian
Language : Russian
Default : No
Forced : No

Text #2
ID : 6
Format : UTF-8
Codec ID : S_TEXT/UTF8
Codec ID/Info : UTF-8 Plain Text
Title : English
Language : English
Default : No
Forced : No

Menu
00:00:00.000 : en:Coastal Credits
00:02:37.640 : en:Derange the World
00:07:11.400 : en:Crime Scene
00:11:17.840 : en:Workmates
00:16:10.200 : en:Dealers and Victims (I Shall Believe)
00:20:50.760 : en:Nice Detective Work
00:27:12.320 : en:The Profile
00:30:02.200 : en:Kids Like That
00:34:39.840 : en:Way Too Involved
00:40:52.520 : en:Looking at Justin
00:45:43.400 : en:Suspect Named
00:48:37.560 : en:Attacked
00:49:58.680 : en:What Lisa's Like (Number of the Beast)
00:54:40.200 : en:Losing It?
00:58:53.440 : en:Trash Haul
01:01:59.400 : en:Stick Together
01:04:23.640 : en:Part of It
01:08:16.560 : en:Good Cop's Request
01:11:22.280 : en:Dual Interrogation
01:16:25.240 : en:Murder Scenario
01:23:42.800 : en:Talking Game
01:25:54.600 : en:Stand Up and Face It
01:31:02.160 : en:Hidden Below
01:33:38.680 : en:"Wish I'd Met You First"
01:36:55.440 : en:Suicide Pact
01:40:15.600 : en:Over the Edge
01:43:43.440 : en:Reaching Out
01:45:40.120 : en:Justin's Act
01:50:55.240 : en:End Credits


Случайное убийство скачать торрент


pb.wtf



Скачать Случайное убийство через торрент http://pic.kartinco.top/images/3/zjy5t4mzkc.png Скачать фильм Случайное убийство через торрент бесплантно в хорошем качестве Описание: Два подростка спланировали и совершили идеальное убийство только затем, чтобы вовлечь полицейских в занимательную ... 10 10 6
Info! Золотая раздача, скачанное не засчитывается.
Торрент: Зарегистрирован [2013-08-29 15:22] · скачан: 48 раз
Статус: √ проверено
Размер: 5.7 GB
Как cкачать? Как скачать Случайное убийство через торрент | qTorrent

% Раздел Тема Автор DL S | L
Фильмы 2001-2005 [ 1.93 GB ] Отсчет убийств / Murder by Numbers [2002 HDTVRip] feldeger Скачать
1 | 0

28-11-2019 20:33  

Отключить всю рекламу на сайте

    Дорогой пользователь! Огромная просьба, поблагодарите релизера, оцените раздачу и оставьте свои комментарий, если Вы скачали Случайное убийство через торрент бесплатно! Внесите свою лепту в развитие PiratBit!
    Комментировать посты могут только пользователи прошедшие не сложную регистрацию
    Показать сообщения:    

    Случайное убийство через торрент
    Скачать бесплатно Случайное убийство
    Случайное убийство скачать торрент
    Случайное убийство смотреть онлайн
    Cкачать фильм Случайное убийство бесплатно
    Случайное убийство скачать торрент в хорошем качестве
    Случайное убийство смотреть онлайн бесплатно в хорошем качестве


    Вы не можете начинать темы
    Вы не можете отвечать на сообщения
    Вы не можете редактировать свои сообщения
    Вы не можете удалять свои сообщения
    Вы не можете голосовать в опросах
    Вы не можете прикреплять файлы к сообщениям
    Вы можете скачивать файлы