Ссылка на приватное зеркало нашего сайта всего за 1$. Внимание количество ограничено!!!

2 сезон

iTunes

1 сезон

1

iTunes

iTunes

iTunes

1 сезон

RePack

30

ИГРА 18+

pack

ВАЖНО

!!Акция!!

Alien_RageХит недели

RePack

MK11
pack

Забери бонус

RePack

jed

!!Акция!!

Alien_Rage

RePack

fifa19

RePack

Assassins Creed: Odyssey

RePack

NEED FOR SPEED™ PAYBACK

4 сезон

9 сезон

Бесстыжие 9 сезон

Все сериалы

все сериалы на PB.wtf

RePack

FAR CRY 5
  

За канделябрами / Behind the Candelabra (Стивен Содерберг / Steven Soderbergh) [2013, США, драма, мелодрама, биография, HDRip, VO ] pb.wtf

За канделябрами через торрент pb.wtf

Размер: 1.37 GB | Добавлен: 7 лет 1 мес. назад | Торрент скачан:132 раза
Скачать  

31-08-2013 11:09 За канделябрами Скачать торрент  

За канделябрами / Behind the Candelabra


  • Год выпуска:2013
  • Страна:США
  • Жанр:драма, мелодрама, биография

  • Продолжительность: 01:58:34
  • Перевод:Любительский (одноголосый)[Василий Кошкин]

  • Субтитры: Нет
    • Режиссер:Стивен Содерберг / Steven Soderbergh
    • Сценарий: Ричард ЛаГравенес / Richard LaGravenese, Скотт Торсон / Scott Thorson, Алекс Торлейфсон / Alex Thorleifson
    • Продюсер: Сьюзэн Экинс / Susan Ekins, Грегори Джейкобс / Gregory Jacobs, Майкл Полейр / Michael Polaire, Джерри Вайнтрауб / Jerry Weintraub

  • В ролях:Майкл Дуглас (Liberace), Мэтт Дэймон (Scott Thorson), Дэн Эйкройд (Seymour Heller), Скотт Бакула (Bob Black), Роб Лоу (Dr. Jack Startz), Дебби Рейнолдс (Frances Liberace), Эрик Цуккерман (Lou), Эдди Джемисон (Assistant Director), Рэнди Лауэлл (Director), Том Роач (Stunt Actor), Шамус Кули (Camera Assistant), Джон Смутни (Sound Mixer)
    • Описание:
      Байопик о скандально известном пианисте и конферансье Владзиу Валентино Либераче. В 50-х годах он часто появлялся в вызывающих и вычурных нарядах, украшенных искусственными бриллиантами, золотом, мехами и блестками. Популярность он обрел благодаря своим пластинкам, а также частому появлению на телевидении и в кино.

  • Рейтинг
    kinopoisk.ru: 7.101 (653)
    imdb.com: 7.10 (7708)
    • Качество:HDRip
    • Формат:AVI
    • Видео кодек: XviD
    • Аудио кодек:AC3
    • Видео: XviD, 720x400 (16:9), 1542 kbps, 23,976 fps, 0,223 bpp
    • Аудио: AC3 / 2.0 / 48 kHz / 192 kbps /


    General
    Complete name : D:ТорентыZa.kandeljabrami.2013.L1.HDRip.1400Mb.avi
    Format : AVI
    Format/Info : Audio Video Interleave
    File size : 1.37 GiB
    Duration : 1h 58mn
    Overall bit rate : 1 650 Kbps
    Writing application : VirtualDubMod 1.5.10.3 | www.virtualdub-fr.org || (build 2550/release)
    Writing library : VirtualDubMod build 2550/release

    Video
    ID : 0
    Format : MPEG-4 Visual
    Codec ID : XVID
    Codec ID/Hint : XviD
    Duration : 1h 58mn
    Source duration : 38mn 19s
    Bit rate : 1 543 Kbps
    Width : 720 pixels
    Height : 400 pixels
    Display aspect ratio : 16:9
    Frame rate : 23.976 fps
    Color space : YUV
    Chroma subsampling : 4:2:0
    Compression mode : Lossy
    Bits/(Pixel*Frame) : 0.223
    Stream size : 423 MiB (30%)

    Audio
    ID : 1
    Format : AC-3
    Format/Info : Audio Coding 3
    Codec ID : 2000
    Duration : 1h 58mn
    Source duration : 38mn 20s
    Bit rate mode : Constant
    Bit rate : 192 Kbps
    Channel(s) : 2 channels
    Sampling rate : 48.0 KHz
    Compression mode : Lossy
    Stream size : 52.6 MiB (4%)
    Alignment : Aligned on interleaves
    Interleave, duration : 42 ms (1.00 video frame)
    Interleave, preload duration : 500 ms

    • Фильм снят по мотивам романа Скотта Торсона и Алекса Торлейфсона «За канделябрами: Моя жизнь с Либераче» (Behind the Candelabra: My Life With Liberace, 1988).

    © Оформление by Vetalpb.wtf



  • Скачать За канделябрами через торрент http://i2.imageban.ru/out/2013/08/31/f487d65e0132b05a01fc40eecf9e9cd2.jpg Скачать фильм За канделябрами через торрент бесплантно в хорошем качестве Описание:Байопик о скандально известном пианисте и конферансье Владзиу Валентино Либераче. В 50-х годах он часто появлялся в вызывающих и ... 5.8 10 10
    Info! Золотая раздача, скачанное не засчитывается.
    Торрент: Зарегистрирован [2013-08-31 11:09] · скачан: 132 раз
    Статус: √ проверено
    Размер: 1.37 GB
    Как cкачать? Как скачать За канделябрами через торрент | qTorrent

    % Раздел Тема Автор DL S | L
    Фильмы 2013 (Звук TS, Cam, VO, DVO) [ 2.06 GB ] За канделябрами / Behind the Candelabra [2013 биография HDTVRip VO] [Василий Кошкин] k1z Скачать
    1 | 0

    28-11-2019 20:33  

    Отключить всю рекламу на сайте

      Дорогой пользователь! Огромная просьба, поблагодарите релизера, оцените раздачу и оставьте свои комментарий, если Вы скачали За канделябрами через торрент бесплатно! Внесите свою лепту в развитие PiratBit!
      Комментировать посты могут только пользователи прошедшие не сложную регистрацию
      Показать сообщения:    

      За канделябрами через торрент
      Скачать бесплатно За канделябрами
      За канделябрами скачать торрент
      За канделябрами смотреть онлайн
      Cкачать фильм За канделябрами бесплатно
      За канделябрами скачать торрент в хорошем качестве
      За канделябрами смотреть онлайн бесплатно в хорошем качестве


      Вы не можете начинать темы
      Вы не можете отвечать на сообщения
      Вы не можете редактировать свои сообщения
      Вы не можете удалять свои сообщения
      Вы не можете голосовать в опросах
      Вы не можете прикреплять файлы к сообщениям
      Вы можете скачивать файлы