Ссылка на приватное зеркало нашего сайта всего за 1$. Внимание количество ограничено!!!

2 сезон

iTunes

1 сезон

1

iTunes

iTunes

iTunes

1 сезон

RePack

30

ИГРА 18+

pack

ВАЖНО

!!Акция!!

Alien_RageХит недели

RePack

MK11
pack

Забери бонус

RePack

jed

!!Акция!!

Alien_Rage

RePack

fifa19

RePack

Assassins Creed: Odyssey

RePack

NEED FOR SPEED™ PAYBACK

4 сезон

9 сезон

Бесстыжие 9 сезон

Все сериалы

все сериалы на PB.wtf

RePack

FAR CRY 5
  

Самолет президента / Air Force One (Вольфганг Петерсен) [1997 г., боевик, триллер, драма, BDRip 720p, DUB, MVO, AVO] pb.wtf

Самолет президента через торрент pb.wtf

Размер: 6.41 GB | Добавлен: 7 лет 1 мес. назад | Торрент скачан:5 раз
Скачать  

01-09-2013 04:04 Самолет президента Скачать торрент  

Самолет президента / Air Force One
Год выпуска: 1997
Страна: Германия, США
Жанр: боевик, триллер, драма
Продолжительность: 02:04:34

Перевод: Профессиональный (полное дублирование)
Профессиональный многоголосый
Авторский одноголосый (Ю. Живов)
Авторский одноголосый (А. Гаврилов)

Субтитры: Присутствуют (английские)

Режиссер: Вольфганг Петерсен
Продюссер: Марк Абрахам, Эрмиан Бернштейн, Томас А. Блисс
Сценарий: Эндрю У. Марлоу

В ролях: Харрисон Форд, Гари Олдман, Гленн Клоуз, Венди Крюсон, Лизель Мэтьюз, Пол Гилфойл, Ксандер Беркли, Уильям Х. Мэйси, Дин Стокуэлл, Том Эверетт, Юрген Прохнов,

Описание: Самолет президента — самый охраняемый объект ВВС США. Президент возвращается с переговоров в Москве вместе с семьей и администрацией. Но едва самолет поднимается в воздух, его захватывает группа террористов, которыми руководит непримиримый коммунист Коршунов. Он угрожает убить заложников, если их лидер, генерал Радек, заключенный в тюрьму, не будет освобожден. Президенту приходится бороться за жизнь близких ему людей и за будущее человечества.



Качество: BDRip 720p
Формат: MKV
Видео кодек: AVC
Аудио кодек: AC3
Видео: 1280х532 (2.40:1), 23.976 fps, AVC, ~ 4625 kbps avg, 0.303 bit/pixel
Аудио#1: Russian: 48 kHz, AC3, 2 ch, ~ 256.00 kbps avg |Дубляж|
Аудио#2: Russian: 48 kHz, AC3, 3/2 (L,C,R,l,r) + LFE ch, ~ 448.00 kbps avg |MVO|
Аудио#3: Russian: 48 kHz, AC3, 3/2 (L,C,R,l,r) + LFE ch, ~ 640.00 kbps avg |Живов|
Аудио#4: Russian: 48 kHz, AC3, 3/2 (L,C,R,l,r) + LFE ch, ~ 448.00 kbps avg |Гаврилов|
Аудио#5: English: 48 kHz, AC3, 3/2 (L,C,R,l,r) + LFE ch, ~ 640.00 kbps avg



D:Самолет президента.mkv
General
Unique ID : 226184743958403638537532701439229933027 (0xAA2998DDDBFE0C1C9649B74E4F27B5E3)
Complete name : D:Самолет президента.mkv
Format : Matroska
Format version : Version 2
File size : 6.41 GiB
Duration : 2h 4mn
Overall bit rate : 7 367 Kbps
Encoded date : UTC 2009-12-16 18:58:13
Writing application : mkvmerge v2.9.8 ('C'est le bon') built on Aug 13 2009 12:49:06
Writing library : libebml v0.7.7 + libmatroska v0.8.1
Video #1
ID : 1
Format : AVC
Format/Info : Advanced Video Codec
Format profile : High@L4.1
Format settings, CABAC : Yes
Format settings, ReFrames : 9 frames
Codec ID : V_MPEG4/ISO/AVC
Duration : 2h 4mn
Bit rate : 4 940 Kbps
Width : 1 280 pixels
Height : 532 pixels
Display aspect ratio : 2.40:1
Frame rate mode : Constant
Frame rate : 23.976 fps
Color space : YUV
Chroma subsampling : 4:2:0
Bit depth : 8 bits
Scan type : Progressive
Bits/(Pixel*Frame) : 0.303
Stream size : 4.17 GiB (65%)
Writing library : x264 core 79 r1352kMod d487de4
Encoding settings : cabac=1 / ref=9 / deblock=1:-2:-1 / analyse=0x3:0x131 / me=umh / subme=10 / psy=1 / psy_rd=1.0:0.0 / mixed_ref=1 / me_range=32 / chroma_me=1 / trellis=2 / 8x8dct=1 / cqm=0 / deadzone=21,11 / chroma_qp_offset=-2 / threads=6 / nr=0 / decimate=0 / mbaff=0 / constrained_intra=0 / bframes=6 / b_pyramid=2 / b_adapt=2 / b_bias=0 / direct=3 / wpredb=1 / wpredp=2 / keyint=250 / keyint_min=25 / scenecut=40 / rc_lookahead=0 / rc=2pass / mbtree=0 / bitrate=4940 / ratetol=1.0 / qcomp=0.60 / qpmin=10 / qpmax=51 / qpstep=4 / cplxblur=20.0 / qblur=0.5 / vbv_maxrate=50000 / vbv_bufsize=62500 / ip_ratio=1.40 / pb_ratio=1.30 / aq=1:1.00
Language : English
Default : No
Forced : No
Matrix coefficients : BT.709
Audio #2
ID : 2
Format : AC-3
Format/Info : Audio Coding 3
Mode extension : CM (complete main)
Format settings, Endianness : Big
Codec ID : A_AC3
Duration : 2h 4mn
Bit rate mode : Constant
Bit rate : 256 Kbps
Channel(s) : 2 channels
Channel positions : Front: L R
Sampling rate : 48.0 KHz
Bit depth : 16 bits
Compression mode : Lossy
Stream size : 228 MiB (3%)
Title : Dub
Language : Russian
Default : Yes
Forced : No
Audio #3
ID : 3
Format : AC-3
Format/Info : Audio Coding 3
Mode extension : CM (complete main)
Format settings, Endianness : Big
Codec ID : A_AC3
Duration : 2h 4mn
Bit rate mode : Constant
Bit rate : 448 Kbps
Channel(s) : 6 channels
Channel positions : Front: L C R, Side: L R, LFE
Sampling rate : 48.0 KHz
Bit depth : 16 bits
Compression mode : Lossy
Stream size : 399 MiB (6%)
Title : MVO
Language : Russian
Default : No
Forced : No
Audio #4
ID : 4
Format : AC-3
Format/Info : Audio Coding 3
Mode extension : CM (complete main)
Format settings, Endianness : Big
Codec ID : A_AC3
Duration : 2h 4mn
Bit rate mode : Constant
Bit rate : 640 Kbps
Channel(s) : 6 channels
Channel positions : Front: L C R, Side: L R, LFE
Sampling rate : 48.0 KHz
Bit depth : 16 bits
Compression mode : Lossy
Stream size : 570 MiB (9%)
Title : AVO, Givov
Language : Russian
Default : No
Forced : No
Audio #5
ID : 5
Format : AC-3
Format/Info : Audio Coding 3
Mode extension : CM (complete main)
Format settings, Endianness : Big
Codec ID : A_AC3
Duration : 2h 4mn
Bit rate mode : Constant
Bit rate : 448 Kbps
Channel(s) : 6 channels
Channel positions : Front: L C R, Side: L R, LFE
Sampling rate : 48.0 KHz
Bit depth : 16 bits
Compression mode : Lossy
Stream size : 399 MiB (6%)
Title : AVO, Gavrilov
Language : Russian
Default : No
Forced : No
Audio #6
ID : 6
Format : AC-3
Format/Info : Audio Coding 3
Mode extension : CM (complete main)
Format settings, Endianness : Big
Codec ID : A_AC3
Duration : 2h 4mn
Bit rate mode : Constant
Bit rate : 640 Kbps
Channel(s) : 6 channels
Channel positions : Front: L C R, Side: L R, LFE
Sampling rate : 48.0 KHz
Bit depth : 16 bits
Compression mode : Lossy
Stream size : 570 MiB (9%)
Language : English
Default : No
Forced : No
Text #7
ID : 7
Format : UTF-8
Codec ID : S_TEXT/UTF8
Codec ID/Info : UTF-8 Plain Text
Language : English
Default : No
Forced : No

pb.wtf



Скачать Самолет президента через торрент http://i57.fastpic.ru/big/2013/0901/c1/8079d80995242a9ddffb675effffd9c1.jpg Скачать фильм Самолет президента через торрент бесплантно в хорошем качестве Описание: Самолет президента — самый охраняемый объект ВВС США. Президент возвращается с переговоров в Москве вместе с семьей и ... 7.4 10 8
Info! Золотая раздача, скачанное не засчитывается.
Торрент: Зарегистрирован [2013-09-01 04:04] · скачан: 5 раз
Статус: √ проверено
Размер: 6.41 GB
Как cкачать? Как скачать Самолет президента через торрент | qTorrent

% Раздел Тема Автор DL S | L
Фильмы (HD 720p, 1080p) (48-60 fps) [ 3.81 GB ] Самолет президента / Air Force One [1997 BDRip 720p / 60 FPS ] от R.G. HD-Films slaventi-69 Скачать
1 | 0
Ultra HD (UHD: 2K, 4K, 8K) — видео сверхвысокой чёткости [ 57.81 GB ] Самолет президента / Air Force One [1997 UHD Blu-ray 2160p] DUB + MVO sheker187 Скачать
1 | 0
Ultra HD (UHD: 2K, 4K, 8K) — видео сверхвысокой чёткости [ 54.21 GB ] Самолет президента / Air Force One [1997 UHD BDRemux 2160p] 2xAVO+MVO+DUB bober100 Скачать
1 | 0
Фильмы до 2000 г. [ 2.95 GB ] Самолет президента / Air Force One [1997 HDRip] 3x[AVO] killermax2013 Скачать
1 | 0
Фильмы до 2000 г. [ 1.46 GB ] Самолет президента / Air Force One [1997 BDRip MVO лицензия] Blane Скачать
1 | 1

28-11-2019 20:33  

Отключить всю рекламу на сайте

    Дорогой пользователь! Огромная просьба, поблагодарите релизера, оцените раздачу и оставьте свои комментарий, если Вы скачали Самолет президента через торрент бесплатно! Внесите свою лепту в развитие PiratBit!
    Комментировать посты могут только пользователи прошедшие не сложную регистрацию
    Показать сообщения:    

    Самолет президента через торрент
    Скачать бесплатно Самолет президента
    Самолет президента скачать торрент
    Самолет президента смотреть онлайн
    Cкачать фильм Самолет президента бесплатно
    Самолет президента скачать торрент в хорошем качестве
    Самолет президента смотреть онлайн бесплатно в хорошем качестве


    Вы не можете начинать темы
    Вы не можете отвечать на сообщения
    Вы не можете редактировать свои сообщения
    Вы не можете удалять свои сообщения
    Вы не можете голосовать в опросах
    Вы не можете прикреплять файлы к сообщениям
    Вы можете скачивать файлы