2 сезон

iTunes

MVO

1

2 сезон

iTunes

iTunes

1 сезон

RePack

30

Новинка

ВАЖНО

ИГРА 18+

pack

RePack

MK11
pack

Легкие деньги

RePack

jed

RePack

fifa19

RePack

RDR2

RePack

NEED FOR SPEED™ PAYBACK

4 сезон

9 сезон

Бесстыжие 9 сезон

Все сериалы

все сериалы на PB.wtf

RePack

FAR CRY 5

Anonymous, доброе утро, мы не успеваем собрать деньги на оплату серверов за декабрь и январь, помогите нам пожалуйста в это трудное время. В качестве благодарности мы отключим Вам всю рекламу на сайте (укажите свой ник в строку Ваше имя)!

×
  
Magnet ссылка

Незнакомец внутри / The Stranger Within (Adam Neutzsky-Wulff) [2013, Дания, триллер, DVDRip, MVO [ лицензия ] pb.wtf

Незнакомец внутри через торрент pb.wtf

Размер: 1.37 GB | Добавлен: 7 лет 4 мес. назад | Торрент скачан:498 раз
Скачать  

01-09-2013 08:57 Незнакомец внутри Скачать торрент  

Незнакомец внутри / The Stranger Within


  • Год выпуска:2013
  • Страна:Дания
  • Жанр:триллер
  • Продолжительность: 01:26:50
  • Перевод:Профессиональный (многоголосый, закадровый) [лицензия]

  • Субтитры: Нет
    • Режиссер:Adam Neutzsky-Wulff
    • Сценарий: Adam Neutzsky-Wulff
    • Продюсер: Michael Aoun, Adam Neutzsky-Wulff, Rasmus Kastberg, Пол Тилли / Paul Tilly

  • В ролях:Эстелла Уоррен (Emily), Уильям Болдуин (Robert), Катя Винтер (Sophie), Сара Батлер (Sarah), Джеффри Пирс (Michael), Ким Бодния (Uli), Клер Росс-Браун (Jane), Вивьенн МакКи (Anna), Оле Дюпон (Premieregæst), Roohullah Rohein Hasani (гость), Patrick Mischar Olsen (Broadway Guest / Audience, в титрах не указан)
    • Описание:
      Известная актриса Эмили Мур и ее муж психиатр по имени Роберт, решают отдохнуть на удаленном средиземноморском острове. Но в первую же ночь в их дом приходит молодая женщина в истерике от смерти ее парня...

  • Рейтинг
    MPAA: R - Лицам до 17 лет обязательно присутствие взрослого
    • Качество:DVDRip
    • Формат:AVI
    • Видео кодек: XviD
    • Аудио кодек:AC3
    • Видео: XviD, 720x304 (2.35:1), 1861 kbps, 25 fps, 0,340 bpp
    • Аудио: AC3 / 5.1 / 48 kHz / 384 kbps / 16 bit


    General
    Complete name : D:ТорентыNeznakomec.vnutri.2013.P.DVDRip.1400MB..avi
    Format : AVI
    Format/Info : Audio Video Interleave
    File size : 1.37 GiB
    Duration : 1h 26mn
    Overall bit rate : 2 256 Kbps
    Writing application : VirtualDubMod 1.5.10.3 | www.virtualdub-fr.org || (build 2550/release)
    Writing library : VirtualDubMod build 2550/release

    Video
    ID : 0
    Format : MPEG-4 Visual
    Format profile : Advanced Simple@L5
    Format settings, BVOP : 2
    Format settings, QPel : No
    Format settings, GMC : No warppoints
    Format settings, Matrix : Default (MPEG)
    Codec ID : XVID
    Codec ID/Hint : XviD
    Duration : 1h 26mn
    Bit rate : 1 862 Kbps
    Width : 720 pixels
    Height : 304 pixels
    Display aspect ratio : 2.35:1
    Frame rate : 25.000 fps
    Color space : YUV
    Chroma subsampling : 4:2:0
    Bit depth : 8 bits
    Scan type : Progressive
    Compression mode : Lossy
    Bits/(Pixel*Frame) : 0.340
    Stream size : 1.13 GiB (83%)
    Writing library : XviD 1.2.1 (UTC 2008-12-04)

    Audio
    ID : 1
    Format : AC-3
    Format/Info : Audio Coding 3
    Mode extension : CM (complete main)
    Codec ID : 2000
    Duration : 1h 26mn
    Bit rate mode : Constant
    Bit rate : 384 Kbps
    Channel(s) : 6 channels
    Channel positions : Front: L C R, Side: L R, LFE
    Sampling rate : 48.0 KHz
    Bit depth : 16 bits
    Compression mode : Lossy
    Stream size : 238 MiB (17%)
    Alignment : Split accross interleaves
    Interleave, duration : 40 ms (1.00 video frame)
    Interleave, preload duration : 500 ms


    © Оформление by Vetalpb.wtf



  • Скачать Незнакомец внутри через торрент http://i4.imageban.ru/out/2013/09/01/bc719f6e8ef49f7ed1107cb08051722e.jpg Скачать фильм Незнакомец внутри через торрент бесплантно в хорошем качестве Описание:Известная актриса Эмили Мур и ее муж психиатр по имени Роберт, решают отдохнуть на удаленном средиземноморском острове. Но в ... 9.2 10 19
    Info! Золотая раздача, скачанное не засчитывается.
    Торрент: Зарегистрирован [2013-09-01 08:57] · скачан: 498 раз
    Статус: √ проверено
    Размер: 1.37 GB
    Как cкачать? Как скачать Незнакомец внутри через торрент | UTorrent

    % Раздел Тема Автор DL S | L
    Фильмы 2013 [DVDrip, WEB-DLRip, HDrip] [ 703 MB ] Незнакомец внутри / The Stranger Within [2013 Дания DVDRip MVO [ лицензия ] Ворон Скачать
    1 | 0
    Фильмы (DVD фильмы) [ 4.52 GB ] Незнакомец внутри / The Stranger Within [2013 DVD9] R5 voovaz Скачать
    1 | 0

    28-11-2019 20:33  

    Отключить всю рекламу на сайте

      Дорогой пользователь! Огромная просьба, поблагодарите релизера, оцените раздачу и оставьте свои комментарий, если Вы скачали Незнакомец внутри через торрент бесплатно! Внесите свою лепту в развитие PiratBit!
      Комментировать посты могут только пользователи прошедшие не сложную регистрацию
      Показать сообщения:    

      Незнакомец внутри через торрент
      Скачать бесплатно Незнакомец внутри
      Незнакомец внутри скачать торрент
      Незнакомец внутри смотреть онлайн
      Cкачать фильм Незнакомец внутри бесплатно
      Незнакомец внутри скачать торрент в хорошем качестве
      Незнакомец внутри смотреть онлайн бесплатно в хорошем качестве


      Вы не можете начинать темы
      Вы не можете отвечать на сообщения
      Вы не можете редактировать свои сообщения
      Вы не можете удалять свои сообщения
      Вы не можете голосовать в опросах
      Вы не можете прикреплять файлы к сообщениям
      Вы можете скачивать файлы