MEGA SALE -50% FORZA HORIZON 4 ULTIMATE+ВСЕ DLC+ОНЛАЙН всего за 599р. 299 руб. (супер цена). Внимание количество ограничено!!!

iTunes

1+1

iTunes

мы

iTunes

1

iTunes

Чернобыль

iTunes

Ральф против интернета

Лицензия

ПШазам

Лицензия

Игра престолов

Лицензия

30
pack

ВАЖНО

!!Акция!!

Alien_RageХит недели

RePack

Resident Evil 21

ИГРА 18+

pack

RePack

Metro:Exodus

!!Акция!!

Alien_Rage

RePack

fifa19

RePack

Assassins Creed: Odyssey

RePack

NEED FOR SPEED™ PAYBACK

3 сезон

9 сезон

Бесстыжие 9 сезон

Все сериалы

все сериалы на PB.wtf

RePack

FAR CRY 5
Ребята, катастрофически не хватает 7730р. для оплаты серверов за АВГУСТ (всвязи с блокировками трафик упал в 3 раза), 1-2р., выручайте.
  

Мертвеход / The Revenant (Д. Керри Прайор / D. Kerry Prior) [2009, США, ужасы, комедия, HDRip] MVO (ViruseProject) pb.wtf

Мертвеход через торрент pb.wtf

Размер: 2.18 GB | Добавлен: 6 лет назад | Торрент скачан:156 раз
Скачать  

01-09-2013 16:57 Мертвеход Скачать торрент  

Мертвеход / The Revenant

«What could be worse than having your best friend die?»

  • Год выпуска:2009
  • Страна:США
  • Жанр:ужасы, комедия

  • Продолжительность: 01:57:52
  • Перевод: Любительский (многоголосный) - ViruseProject

  • Субтитры: Нет
    • Режиссер:Д. Керри Прайор / D. Kerry Prior
    • Сценарий: Д. Керри Прайор / D. Kerry Prior
    • Продюсер: Д. Керри Прайор / D. Kerry Prior, Дон Данн / Don Dunn, Лайам Финн / Liam Finn, Sarah-Raquel Jimenez, Жак Телемак / Jacques Thelemaque

  • В ролях:Дэвид Андерс (Bart Gregory), Крис Уайлд (Joey Luebner), Луиз Гриффитс (Janet), Джеси Кинг (Mathilda), Эрик Пэйн (Baily), Бернардо Бадилло (Palance), Теда Рейчман (Bart's Parents), Ричард Рейчман (Bart's Parents), Уолли Уайт (Minister), Флойд Ван Баскирк (Mourner), Марк Елиас (Mourner), Зои Симпсон (Mourner)
    • Описание:
      Как вы поступите, если ваш лучший друг погибнет? Будете горевать, утешать его родственников, похороните его... И продолжите жить дальше, так как жизнь не стоит на месте... Но что вы будете делать, если ваш погибший друг вернется? Причем вернется он, как говорится, в здравом уме и твердой памяти...

  • Рейтинг
    kinopoisk.ru: 6.281 (911)
    imdb.com: 6.30 (5141)
    MPAA: R - Лицам до 17 лет обязательно присутствие взрослого

    • Качество:BDRip
    • Формат:AVI
    • Видео кодек: XviD
    • Аудио кодек:AC3
    • Видео: XviD, 720x304 (2.35:1), 1733 kbps, 23,976 fps, 0,330 bpp
    • Аудио №1: AC3 / 5.1 / 48 kHz / 448 kbps / 16 bit -Russian
      Аудио №2: AC3 / 5.1 / 48 kHz / 448 kbps / 16 bit-English


    General
    Complete name : D:ТорентыMertvehod.2009.BDRip.avi
    Format : AVI
    Format/Info : Audio Video Interleave
    Format profile : OpenDML
    File size : 2.18 GiB
    Duration : 1h 57mn
    Overall bit rate : 2 647 Kbps
    Writing application : VirtualDubModRus 1.5.10.2 (build 2542/release)
    Writing library : VirtualDubMod build 2542/release

    Video
    ID : 0
    Format : MPEG-4 Visual
    Format profile : Advanced Simple@L5
    Format settings, BVOP : 2
    Format settings, QPel : No
    Format settings, GMC : No warppoints
    Format settings, Matrix : Custom
    Muxing mode : Packed bitstream
    Codec ID : XVID
    Codec ID/Hint : XviD
    Duration : 1h 57mn
    Bit rate : 1 733 Kbps
    Width : 720 pixels
    Height : 304 pixels
    Display aspect ratio : 2.35:1
    Frame rate : 23.976 fps
    Color space : YUV
    Chroma subsampling : 4:2:0
    Bit depth : 8 bits
    Scan type : Progressive
    Compression mode : Lossy
    Bits/(Pixel*Frame) : 0.330
    Stream size : 1.43 GiB (65%)
    Writing library : XviD 65

    Audio #1
    ID : 1
    Format : AC-3
    Format/Info : Audio Coding 3
    Mode extension : CM (complete main)
    Codec ID : 2000
    Duration : 1h 57mn
    Bit rate mode : Constant
    Bit rate : 448 Kbps
    Channel(s) : 6 channels
    Channel positions : Front: L C R, Side: L R, LFE
    Sampling rate : 48.0 KHz
    Bit depth : 16 bits
    Compression mode : Lossy
    Stream size : 378 MiB (17%)
    Alignment : Split accross interleaves
    Interleave, duration : 42 ms (1.00 video frame)
    Interleave, preload duration : 500 ms

    Audio #2
    ID : 2
    Format : AC-3
    Format/Info : Audio Coding 3
    Mode extension : CM (complete main)
    Codec ID : 2000
    Duration : 1h 57mn
    Bit rate mode : Constant
    Bit rate : 448 Kbps
    Channel(s) : 6 channels
    Channel positions : Front: L C R, Side: L R, LFE
    Sampling rate : 48.0 KHz
    Bit depth : 16 bits
    Compression mode : Lossy
    Stream size : 378 MiB (17%)
    Alignment : Split accross interleaves
    Interleave, duration : 42 ms (1.00 video frame)
    Interleave, preload duration : 500 ms


    © Оформление by Vetalpb.wtf



  • Скачать Мертвеход через торрент http://i2.imageban.ru/out/2013/09/01/dc7a720a40e42abb830ebbdfe9d12466.png Скачать фильм Мертвеход через торрент бесплантно в хорошем качестве Описание:Как вы поступите, если ваш лучший друг погибнет? Будете горевать, утешать его родственников, похороните его... И продолжите жить ... 9.9 10 9
    Info! Золотая раздача, скачанное не засчитывается.
    Торрент: Зарегистрирован [2013-09-01 16:57] · скачан: 156 раз
    Статус: √ проверено
    Размер: 2.18 GB
    Как cкачать? Как скачать Мертвеход через торрент | qTorrent

    % Раздел Тема Автор DL S | L
    Фильмы [HD 720p, 1080p] (Звук Cam, VO, DVO) [ 6.25 GB ] Мертвеход / The Revenant [2009 BDRip 720p] MVO + original + sub Ворон Скачать
    1 | 0
    Фильмы 2009 [ 1.45 GB ] Мертвеход / The Revenant [2009 HDRip] MVO Ворон Скачать
    1 | 0
    Фильмы 2009 [ 1.4 GB ] Мертвеход / The Revenant [2009 HDRip] MVO stalonе Скачать
    1 | 0
    Фильмы 2009 [ 778 MB ] Мертвеход / The Revenant [2009 DVDRip] VintMosina Скачать
    1 | 0


    >> Регистрируемся здесь <<






    Отзывы и комментарии о схеме читаем и пишем здесь: ---> Отзывы и комментарии о схеме

    Новые благодарочки в телеграм довольных пользователей:
    скриншот   скриншот   скриншот   скриншот   скриншот
      Дорогой пользователь! Огромная просьба, поблагодарите релизера, оцените раздачу и оставьте свои комментарий, если Вы скачали Мертвеход через торрент бесплатно! Внесите свою лепту в развитие PiratBit!
      Комментировать посты могут только пользователи прошедшие не сложную регистрацию
      Показать сообщения:    

      Мертвеход через торрент
      Скачать бесплатно Мертвеход
      Мертвеход скачать торрент
      Мертвеход смотреть онлайн
      Cкачать фильм Мертвеход бесплатно
      Мертвеход скачать торрент в хорошем качестве
      Мертвеход смотреть онлайн бесплатно в хорошем качестве


      Вы не можете начинать темы
      Вы не можете отвечать на сообщения
      Вы не можете редактировать свои сообщения
      Вы не можете удалять свои сообщения
      Вы не можете голосовать в опросах
      Вы не можете прикреплять файлы к сообщениям
      Вы можете скачивать файлы