новый адрес
Ссылка на приватное зеркало всего за 1$. Внимание количество ограничено!!!

iTunes

1+1

iTunes

мы

iTunes

1

iTunes

Чернобыль

iTunes

Ральф против интернета

Лицензия

ПШазам

Лицензия

Оно 2

Лицензия

30
pack

Вам бонус

ВАЖНО

!!Акция!!

Alien_RageХит недели

RePack

Resident Evil 21

ИГРА 18+

pack

RePack

jed

!!Акция!!

Alien_Rage

RePack

fifa19

RePack

Assassins Creed: Odyssey

RePack

NEED FOR SPEED™ PAYBACK

3 сезон

9 сезон

Бесстыжие 9 сезон

Все сериалы

все сериалы на PB.wtf

RePack

FAR CRY 5
Ребята, катастрофически не хватает 1900р. для оплаты серверов за Октябрь (всвязи с блокировками трафик упал в 3 раза), 1-2р., выручайте.
  

Чрево / Womb (Бенедек Флигауф) [2010, фантастика, драма, мелодрама, DVDRip,MVO] pb.wtf

Чрево через торрент pb.wtf

Раздают: 1 [ 0 KB/s ]
Размер: 1.46 GB | Добавлен: 5 лет 2 мес. назад | Торрент скачан:279 раз
Скачать  

01-09-2013 17:52 Чрево Скачать торрент  

Чрево / Womb


Год выпуска: 2010
Страны: Германия , Венгрия , Франция
Слоган: «What are the consequences of giving birth to your dead boyfriend?»
Жанры: фантастика, драма, мелодрама
Продолжительность: 01:47:18
Перевод: Профессиональный (многоголосый закадровый)

Режиссер: Бенедек Флигауф
Сценарий: Бенедек Флигауф
Продюсер: Герхард Майкснер, Андраш Мухи, Роман Пол, ...


Бюджет: €3 100 000
Премьера (мир): 15 июля 2010, ...
Премьера (РФ): 20 января 2011, «Каравелла DDC»
Релиз на DVD: 30 марта 2011, «Кармен Видео»


В ролях: Ева Грин / Eva Green (Rebecca), Мэтт Смит / Matt Smith (Thomas), Лесли Мэнвилл / Lesley Manville (Judith), Питер Уайт / Peter Wight (Ralph), Иштван Ленар / Istvan Lenart (Henry), Ханна Мюррэй / Hannah Murray (Monica), Руби О. Фи / Ruby O. Fee (Rebecca - 9 years), Тристан Кристофер / Tristan Christopher (Thomas - 10 years)


Описание: Женщина клонирует своего умершего возлюбленного и воспитывает его с младенчества до юношества, постоянно испытывая сомнения в том, верное ли решение она приняла.



Качество: DVDRip
Формат: AVI
Видео кодек: DivX 5
Аудио кодек: AC3
Видео: 720x304 (2.35:1), 25.000 fps, DivX 5, 1 561 Kbps
Аудио: Аудио #1: AC3, 384 Kbps, 48.0 KHz, 6 ch

Код:

General
Complete name                    : WOMB.avi
Format                           : AVI
Format/Info                      : Audio Video Interleave
File size                        : 1.46 GiB
Duration                         : 1h 47mn
Overall bit rate                 : 1 955 Kbps
Movie name                       : Чрево / Womb (2010)
Director                         : [4epHa9 PaketHica CORPORATION]
Writing application              : VirtualDubMod 1.5.10.2 (build 2540/release)
Copyright                        : http://raketnica.net.ua/

Video
ID                               : 0
Format                           : MPEG-4 Visual
Format settings, BVOP            : Yes
Format settings, QPel            : No
Format settings, GMC             : No warppoints
Format settings, Matrix          : Default (H.263)
Muxing mode                      : Packed bitstream
Codec ID                         : DX50
Codec ID/Hint                    : DivX 5
Duration                         : 1h 47mn
Bit rate                         : 1 561 Kbps
Width                            : 720 pixels
Height                           : 304 pixels
Display aspect ratio             : 2.35:1
Frame rate                       : 25.000 fps
Color space                      : YUV
Chroma subsampling               : 4:2:0
Bit depth                        : 8 bits
Scan type                        : Progressive
Bits/(Pixel*Frame)               : 0.285
Stream size                      : 1.17 GiB (80%)
Writing library                  : DivX 6.8.5 (UTC 2009-08-20)

Audio
ID                               : 1
Format                           : AC-3
Format/Info                      : Audio Coding 3
Mode extension                   : CM (complete main)
Codec ID                         : 2000
Duration                         : 1h 47mn
Bit rate mode                    : Constant
Bit rate                         : 384 Kbps
Channel(s)                       : 6 channels
Channel positions                : Front: L C R, Side: L R, LFE
Sampling rate                    : 48.0 KHz
Bit depth                        : 16 bits
Stream size                      : 295 MiB (20%)
Alignment                        : Split accross interleaves
Interleave, duration             : 40 ms (1.00 video frame)
Interleave, preload duration     : 500 ms







pb.wtf



Скачать Чрево через торрент http://i57.fastpic.ru/big/2013/0901/61/6c3358d5c6a9a6fd4f2811676ee3af61.jpg Скачать фильм Чрево через торрент бесплантно в хорошем качестве Описание: Женщина клонирует своего умершего возлюбленного и воспитывает его с младенчества до юношества, постоянно испытывая сомнения в ... 9.3 10 10
Торрент: Зарегистрирован [2014-09-14 23:19] · скачан: 279 раз
Статус: √ проверено
Размер: 1.46 GB
Как cкачать? Как скачать Чрево через торрент | qTorrent

% Раздел Тема Автор DL S | L
Азиатские фильмы [ 1.61 GB ] Призраки чрева / Womb Ghosts / Ngok toi [2010 BDRip VO / Sub-Rus] maygli Скачать
1 | 0
Отключить всю рекламу на сайте

19-11-2016 22:33 Чрево Скачать торрент  

Ересь.pb.wtf



    Дорогой пользователь! Огромная просьба, поблагодарите релизера, оцените раздачу и оставьте свои комментарий, если Вы скачали Чрево через торрент бесплатно! Внесите свою лепту в развитие PiratBit!
    Комментировать посты могут только пользователи прошедшие не сложную регистрацию
    Показать сообщения:    

    Чрево через торрент
    Скачать бесплатно Чрево
    Чрево скачать торрент
    Чрево смотреть онлайн
    Cкачать фильм Чрево бесплатно
    Чрево скачать торрент в хорошем качестве
    Чрево смотреть онлайн бесплатно в хорошем качестве


    Вы не можете начинать темы
    Вы не можете отвечать на сообщения
    Вы не можете редактировать свои сообщения
    Вы не можете удалять свои сообщения
    Вы не можете голосовать в опросах
    Вы не можете прикреплять файлы к сообщениям
    Вы можете скачивать файлы