1 сезон

3 сезон

iTunes

1

Line

MVO

iTunes

13

1 сезон

RePack

30

Deluxe

pack

Лицензия

ВАЖНО

ИГРА 18+

pack

RePack

MK11

RePack

jed

RePack

fifa19

RePack

RDR2

RePack

NEED FOR SPEED™ PAYBACK

4 сезон

9 сезон

Бесстыжие 9 сезон

Все сериалы

все сериалы на PB.wtf

RePack

FAR CRY 5

Anonymous, доброй ночи, мы катастрофически не успеваем собрать деньги на оплату серверов, помогите нам пожалуйста 5,10,15р., для нас важна любая помощь . В качестве благодарности мы отключим Вам всю рекламу на сайте (укажите свой ник в строку Ваше имя)!

×
  
Magnet ссылка

Ледник / Frost (Рейнир Лингдаль / Reynir Lyngdal) [2013, ужасы, фантастика, триллер, DVD5] R5 pb.wtf

Ледник через торрент pb.wtf

Размер: 4.27 GB | Добавлен: 7 лет 10 мес. назад | Торрент скачан:115 раз
Скачать  

02-09-2013 12:34 Ледник Скачать торрент  


Ледник / Frost
«Добро пожаловать в его владения»
Страна: Исландия, Финляндия
Студия: Axman Productions, Kisi Production, Solar Films
Жанр: ужасы, фантастика, триллер
Год выпуска: 2013
Мировая премьера: 7 сентября 2012
Российская премьера: 8 августа 2013
Дата выхода DVD: 5 сентября 2013
Продолжительность: 01:18:46
Перевод: Профессиональный (одноголосный) [Лицензия]
Cубтитры: нет
Оригинальная аудиодорожка: нет
Режиссер: Рейнир Лингдаль / Reynir Lyngdal
В ролях: Анна Гунндис Гюдмундсдоттир, Хельги Бьёрнссон, Эйнар Дагбьяртссон, Валур Фрейр Эйнарссон, Элма Лиза Гуннарсдотир, Бьяртур Гудмундссон, Халлур Инголфссон, Хилмир Дженссон, Хилмар Йонсон, Хальфдан Педерсен...
Описание: Молодая пара ученых отправляется на скованную льдами исследовательскую базу. Весь ее персонал бесследно исчез. Они — единственные живые души на сотни километров. Но чем ближе ученые оказываются к чудовищной разгадке, тем отчетливее понимают, за каждым их шагом наблюдает кто-то третий — таинственное нечто. И они — его последние гости.
Бонусы: нет

Релиз группы:
Качество: DVD5 R5
Формат: DVD-Video
Видео кодек: MPEG2
Аудио кодек: AC3
Видео: PAL 16:9 (720x576(0.675)) MPEG Video, 25,000 кадр/сек, 7000 Кбит/сек
Аудио: Russian (Dolby AC3, 6 ch) 448 Кбит/сек, 48,0 КГц



Title: Lednik.2012.DVD5
Size: 4.27 Gb ( 4 478 030,00 KBytes ) - DVD-5
Enabled regions: 1, 2, 3, 4, 5, 6, 7, 8

VTS_01 :
Play Length: 00:00:19
Video: PAL 16:9 (720x576) VBR, Auto Pan&Scan, Auto Letterboxed
Audio:
Not specified (Dolby AC3, 2 ch)

VTS_02 :
Play Length: 01:18:46
Video: PAL 16:9 (720x576) VBR, Auto Letterboxed
Audio:
Not specified (Dolby AC3, 6 ch)

* Menus Information *

VIDEO_TS Menu
Video:
PAL 16:9 (720x576) VBR
Auto Pan&Scan, Auto Letterboxed
Russian Language Unit :
Title Menu

VTS_01 Menu
Video:
PAL 16:9 (720x576) VBR
Auto Pan&Scan, Auto Letterboxed
Audio:
Not specified (Dolby AC3, 6 ch)
Russian Language Unit :
Root Menu

VTS_02 Menu
Video:
PAL 4:3 (720x576) VBR
Russian Language Unit :
Root Menu
Общее
Полное имя : M:Новинки 2013Lednik.2012.DVD5VIDEO_TSVTS_02_1.VOB
Формат : MPEG-PS
Размер файла : 1024 Мбайт
Продолжительность : 18 м.
Общий поток : 7587 Кбит/сек

Видео
Идентификатор : 224 (0xE0)
Формат : MPEG Video
Версия формата : Version 2
Профиль формата : Main@Main
Параметр BVOP формата : Да
Параметр матрицы формата : По умолчанию
Параметр GOP формата : M=3, N=12
Продолжительность : 18 м.
Битрейт : 7000 Кбит/сек
Ширина : 720 пикселей
Высота : 576 пикселей
Соотношение сторон : 16:9
Частота кадров : 25,000 кадров/сек
Стандарт вещания : PAL
Цветовое пространство : YUV
Субдискретизация насыщенности : 4:2:0
Битовая глубина : 8 бит
Тип развёртки : Прогрессивная
Метод сжатия : С потерями
Бит/(Пиксели*Кадры) : 0.675
TimeCode_FirstFrame : 00:00:00:00
TimeCode_Source : Group of pictures header
Размер потока : 943 Мбайт (92%)

Аудио
Идентификатор : 189 (0xBD)-128 (0x80)
Формат : AC-3
Формат/Информация : Audio Coding 3
Расширение режима : CM (complete main)
Параметр Endianness формата : Big
Режим смешивания : DVD-Video
Продолжительность : 18 м.
Вид битрейта : Постоянный
Битрейт : 448 Кбит/сек
Каналы : 6 каналов
Расположение каналов : Front: L C R, Side: L R, LFE
Частота : 48,0 КГц
Битовая глубина : 16 бит
Метод сжатия : С потерями
Задержка видео : -80 мс.
Размер потока : 60,5 Мбайт (6%)










pb.wtf



Скачать Ледник через торрент http://s018.radikal.ru/i511/1308/4d/b640a71b4a0c.jpg Скачать фильм Ледник через торрент бесплантно в хорошем качестве Описание: Молодая пара ученых отправляется на скованную льдами исследовательскую базу. Весь ее персонал бесследно исчез. Они — единственные ... 8.4 10 11
Info! Золотая раздача, скачанное не засчитывается.
Торрент: Зарегистрирован [2013-09-02 12:34] · скачан: 115 раз
Статус: √ проверено
Размер: 4.27 GB
Как cкачать? Как скачать Ледник через торрент | UTorrent

28-11-2019 20:33  

Отключить всю рекламу на сайте

02-09-2013 16:49 Ледник Скачать торрент  

год выпуска 2013?????pb.wtf



02-09-2013 18:10 Ледник Скачать торрент  

да пофиг год выпуска, главное что фильм крайне крайне несмотрибелен, ужаса ВООБЩЕ НЕТ, есть только охи, вздохи и пустая болтовня. А не, еще сам ледддддник...pb.wtf



03-09-2013 14:27 Ледник Скачать торрент  

осторожно - пустая трата времени !pb.wtf



    Дорогой пользователь! Огромная просьба, поблагодарите релизера, оцените раздачу и оставьте свои комментарий, если Вы скачали Ледник через торрент бесплатно! Внесите свою лепту в развитие PiratBit!
    Комментировать посты могут только пользователи прошедшие не сложную регистрацию
    Показать сообщения:    

    Ледник через торрент
    Скачать бесплатно Ледник
    Ледник скачать торрент
    Ледник смотреть онлайн
    Cкачать фильм Ледник бесплатно
    Ледник скачать торрент в хорошем качестве
    Ледник смотреть онлайн бесплатно в хорошем качестве


    Вы не можете начинать темы
    Вы не можете отвечать на сообщения
    Вы не можете редактировать свои сообщения
    Вы не можете удалять свои сообщения
    Вы не можете голосовать в опросах
    Вы не можете прикреплять файлы к сообщениям
    Вы можете скачивать файлы