Ссылка на приватное зеркало нашего сайта всего за 1$. Внимание количество ограничено!!!

2 сезон

iTunes

1 сезон

1

iTunes

iTunes

iTunes

1 сезон

RePack

30

ИГРА 18+

pack

ВАЖНО

!!Акция!!

Alien_RageХит недели

RePack

MK11
pack

Забери бонус

RePack

jed

!!Акция!!

Alien_Rage

RePack

fifa19

RePack

Assassins Creed: Odyssey

RePack

NEED FOR SPEED™ PAYBACK

4 сезон

9 сезон

Бесстыжие 9 сезон

Все сериалы

все сериалы на PB.wtf

RePack

FAR CRY 5
  

Эмпайр Стэйт / Empire State (Дито Монтиель) [2013, боевик, драма, HDRip] DVO pb.wtf

Эмпайр Стэйт через торрент pb.wtf

Размер: 701 MB | Добавлен: 7 лет 1 мес. назад | Торрент скачан:346 раз
Скачать  

02-09-2013 23:55 Эмпайр Стэйт Скачать торрент  

Эмпайр Стэйт / Empire State

«Based on a true story»

  • Год выпуска:2013
  • Страна:США
  • Жанр:боевик, драма
  • Продолжительность: 01:34:20
  • Перевод:Любительский (двухголосый) [не определен]

  • Субтитры: Нет
    • Режиссер:Дито Монтиель / Dito Montiel
    • Сценарий: Адам Мазер / Adam Mazer
    • Продюсер: Сэнди Киркостас / Sandy Kyrkostas, Марк Стюарт / Mark Stewart, Рэндолл Эмметт / Randall Emmett, Джордж Фурла / George Furla, Брандт Андерсон / Brandt Andersen

  • В ролях:Лиам Хемсворт (Chris Potamitis), Дуэйн Джонсон (James Ransome), Эмма Робертс (Nancy Michaelides), Никки Рид (Lizzette), Шеней Граймс (Eleni), Майкл Ангарано (Eddie), Джерри Феррара (Jimmy), Крис Диамантополос (Spyro), Джеймс Рэнсон, Джина Мантенья (Vicky), Майкл Рисполи (Tony), Тара Холт (Hot Blonde Guidette)
    • Описание:
      В этом триллере, основанном на реальных событиях, речь пойдет о произошедшем в 1982 году в Нью-Йорке ограблении инкассаторских бронеавтомобилей, которое на тот момент считалось крупнейшим в США.

  • Рейтинг
    imdb.com: 4.90 (1543)
    MPAA: R - Лицам до 17 лет обязательно присутствие взрослого
    • Качество:HDRip
    • Формат:AVI
    • Видео кодек: XviD
    • Аудио кодек:MP3
    • Видео: XviD, 640x272 (2.35:1), 901 kbps, 23,976 fps, 0,216 bpp
    • Аудио: MP3 / 2.0 / 48 kHz / 128 kbps /


    General
    Complete name : D:ТорентыImpire.State.2013.P.HDRip.700MB.avi
    Format : AVI
    Format/Info : Audio Video Interleave
    File size : 701 MiB
    Duration : 1h 34mn
    Overall bit rate : 1 039 Kbps
    Writing application : VirtualDubMod 1.5.10.2 (build 2540/release)
    Writing library : VirtualDubMod build 2540/release

    Video
    ID : 0
    Format : MPEG-4 Visual
    Format profile : Advanced Simple@L5
    Format settings, BVOP : 2
    Format settings, QPel : No
    Format settings, GMC : No warppoints
    Format settings, Matrix : Default (MPEG)
    Muxing mode : Packed bitstream
    Codec ID : XVID
    Codec ID/Hint : XviD
    Duration : 1h 34mn
    Bit rate : 902 Kbps
    Width : 640 pixels
    Height : 272 pixels
    Display aspect ratio : 2.35:1
    Frame rate : 23.976 fps
    Color space : YUV
    Chroma subsampling : 4:2:0
    Bit depth : 8 bits
    Scan type : Progressive
    Compression mode : Lossy
    Bits/(Pixel*Frame) : 0.216
    Stream size : 608 MiB (87%)
    Writing library : XviD 73

    Audio
    ID : 1
    Format : MPEG Audio
    Format version : Version 1
    Format profile : Layer 3
    Codec ID : 55
    Codec ID/Hint : MP3
    Duration : 1h 34mn
    Bit rate mode : Constant
    Bit rate : 128 Kbps
    Channel(s) : 2 channels
    Sampling rate : 48.0 KHz
    Compression mode : Lossy
    Stream size : 86.4 MiB (12%)
    Alignment : Aligned on interleaves
    Interleave, duration : 42 ms (1.00 video frame)
    Interleave, preload duration : 504 ms
    Writing library : LAME3.99r
    Encoding settings : -m s -V 4 -q 2 -lowpass 17 -b 128


    © Оформление by Vetalpb.wtf



  • Скачать Эмпайр Стэйт через торрент http://i5.imageban.ru/out/2013/09/03/859dfa162edf141c61188fd1bc835b69.jpg Скачать фильм Эмпайр Стэйт через торрент бесплантно в хорошем качестве Описание:В этом триллере, основанном на реальных событиях, речь пойдет о произошедшем в 1982 году в Нью-Йорке ограблении инкассаторских ... 9.4 10 17
    Info! Золотая раздача, скачанное не засчитывается.
    Торрент: Зарегистрирован [2013-09-02 23:55] · скачан: 346 раз
    Статус: √ проверено
    Размер: 701 MB
    Как cкачать? Как скачать Эмпайр Стэйт через торрент | qTorrent

    % Раздел Тема Автор DL S | L
    Фильмы 2013 (Звук TS, Cam, VO, DVO) [ 1.46 GB ] Эмпайр Стэйт / Empire State [ 2013 BDRip-AVC DVO] МАКС1 Скачать
    1 | 0
    Фильмы [HD 720p, 1080p] (Звук Cam, VO, DVO) [ 4.36 GB ] Эмпайр Стэйт / Empire State [2013 BDRip 720p] DVO + Original + Sub Ворон Скачать
    1 | 0

    28-11-2019 20:33  

    Отключить всю рекламу на сайте

    03-09-2013 00:34 Эмпайр Стэйт Скачать торрент  

    рейтинг ниже среднего.. дождусь каментов посмотревших пожалуйpb.wtf



    03-09-2013 03:51 Эмпайр Стэйт Скачать торрент  

    Беру из за Джонсона.спс.pb.wtf



    03-09-2013 04:26 Эмпайр Стэйт Скачать торрент  

    Всем привет, фильм слабенький, на разок глянуть.pb.wtf



    03-09-2013 06:54 Эмпайр Стэйт Скачать торрент  

    Звук, перевод - фффф...
    А может я "зажравшийся" тролль... )))pb.wtf



      Дорогой пользователь! Огромная просьба, поблагодарите релизера, оцените раздачу и оставьте свои комментарий, если Вы скачали Эмпайр Стэйт через торрент бесплатно! Внесите свою лепту в развитие PiratBit!
      Комментировать посты могут только пользователи прошедшие не сложную регистрацию
      Показать сообщения:    

      Эмпайр Стэйт через торрент
      Скачать бесплатно Эмпайр Стэйт
      Эмпайр Стэйт скачать торрент
      Эмпайр Стэйт смотреть онлайн
      Cкачать фильм Эмпайр Стэйт бесплатно
      Эмпайр Стэйт скачать торрент в хорошем качестве
      Эмпайр Стэйт смотреть онлайн бесплатно в хорошем качестве


      Вы не можете начинать темы
      Вы не можете отвечать на сообщения
      Вы не можете редактировать свои сообщения
      Вы не можете удалять свои сообщения
      Вы не можете голосовать в опросах
      Вы не можете прикреплять файлы к сообщениям
      Вы можете скачивать файлы