Мега распродажа FORZA HORIZON 4 ULTIMATE+ВСЕ DLC+ОНЛАЙН всего за 499р. 349 руб. (супер цена). Внимание количество ограничено!!!

Лицензия

30

iTunes

мы

iTunes

1

1 сезон

Чернобыль

1 сезон

Ральф против интернета

MVO

Покемон. Детектив Пикачу

8 сезон

Игра престолов

iTunes

1+1

ИГРА 18+

pack

ВАЖНО

!!Акция!!

Alien_RageХит недели

RePack

Resident Evil 21
pack

RePack

Metro:Exodus

!!Акция!!

Alien_Rage

RePack

fifa19

RePack

Assassins Creed: Odyssey

RePack

NEED FOR SPEED™ PAYBACK

3 сезон

9 сезон

Бесстыжие 9 сезон

Все сериалы

все сериалы на PB.wtf

RePack

FAR CRY 5
Ребята, катастрофически не хватает 2730р. для оплаты серверов за МАЙ (всвязи с блокировками трафик упал в 3 раза), 1-2р., выручайте.
  

Сексуальные приключения Красной шапочки / Private Gold 93: Sexual Adventures of Little Red (Moire Candy / Private) [2007 г., Feature, European, Anal, Couples, Porn Stars, DVDRip, Профессиональный закадровый] pb.wtf

Сексуальные приключения Красной шапочки через торрент pb.wtf

Размер: 2.18 GB | Добавлен: 5 лет 9 мес. назад | Торрент скачан:1344 раза
Скачать  

03-09-2013 04:17 Сексуальные приключения Красной шапочки Скачать торрент  



Сексуальные приключения Красной шапочки
Private Gold 93: Sexual Adventures of Little Red



Страна: Европа
Год выпуска: 2007
Жанр:
Feature, European, Anal, Couples, Porn Stars
Продолжительность: 02:32:46
Перевод: Профессиональный закадровый

Язык: Русский

Режиссер: Moire Candy
Студия: Private

В ролях:
Suzie Diamond, Angel Dark, Silvia Saint, Claudia Rossi, Jennifer Love, Jessica Sanchez, Keana Moire, Nella, Sarah Twain, Cage, Denis Marti, George Uhl, Ivan Dam, JC Sonogod, Leny Ewil, Neeo, Wein Lewis


Это - чистый Голливуд! Обжигающий и наполненный спермой римейк классической сказки! Сильвия Сэйнт руководит составом из 8 девушек в горячем, наполненном аналом, секс - марафоне. С одной лесбийской сценой из четырёх девушек, двумя сценами парень+парень+девушка, двумя парень+девушка, и ещё одной парень+парень+девушка+девушка вы наверно скажите: "Охх! Красная Шапочка, что же у тебя такой большой рот, заглатывающий целиком моего большого, опухшего друга!


Качество: DVDRip
Формат: AVI
Видео кодек: XviD
Аудио кодек: AC3
Видео: XviD 720x304 25fps 1841 kbps
Аудио: Dolby AC3 48000Hz stereo 192 kbps

Общее
Полное имя : Private Gold 93_Sexual Adventures of Little RedPrivate Gold 93_Sexual Adventures of Little Red.avi
Формат : AVI
Формат/Информация : Audio Video Interleave
Профиль формата : OpenDML
Размер файла : 2,18 Гбайт
Продолжительность : 2 ч. 32 м.
Общий поток : 2045 Кбит/сек
Программа кодирования : VirtualDubMod 1.5.10.2 (build 2542/release)
Библиотека кодирования : VirtualDubMod build 2542/release

Видео
Идентификатор : 0
Формат : MPEG-4 Visual
Профиль формата : Advanced Simple@L5
Параметр BVOP формата : 2
Параметр QPel формата : Нет
Параметр GMC формата : Без точки перехода
Параметр матрицы формата : Выборочная
Идентификатор кодека : XVID
Идентификатор кодека/Подсказка : XviD
Продолжительность : 2 ч. 32 м.
Битрейт : 1841 Кбит/сек
Ширина : 720 пикселей
Высота : 304 пикселя
Соотношение сторон : 2,35:1
Частота кадров : 25,000 кадров/сек
Цветовое пространство : YUV
Субдискретизация насыщенности : 4:2:0
Битовая глубина : 8 бит
Тип развёртки : Прогрессивная
Метод сжатия : С потерями
Бит/(Пиксели*Кадры) : 0.336
Размер потока : 1,96 Гбайт (90%)
Библиотека кодирования : XviD 65

Аудио
Идентификатор : 1
Формат : AC-3
Формат/Информация : Audio Coding 3
Расширение режима : CM (complete main)
Параметр Endianness формата : Big
Идентификатор кодека : 2000
Продолжительность : 2 ч. 32 м.
Вид битрейта : Постоянный
Битрейт : 192 Кбит/сек
Каналы : 2 канала
Расположение каналов : Front: L R
Частота : 48,0 КГц
Битовая глубина : 16 бит
Метод сжатия : С потерями
Размер потока : 210 Мбайт (9%)
Выравнивание : Разделение по промежуткам
Продолжительность промежутка : 40 мс. (1,00 видеокадр)
Время предзагрузки промежутка : 500 мс.

Scene 1. Keana Moire, Nella, Silvia Saint, Suzie Diamond
Scene 2. Sarah Twain, Cage, Wein Lewis
Scene 3. Jennifer Love, George Uhl
Scene 4. Angel Dark, Jessica Sanchez, Leny Ewil, Neeo
Scene 5. Suzie Diamond, Denis Marti, Ivan Dam
Scene 6. Claudia Rossi, JC Sonogod

pb.wtf



Скачать Сексуальные приключения Красной шапочки через торрент http://pic.kartinco.top/images/3/sb7778k7of.png Скачать фильм Сексуальные приключения Красной шапочки через торрент бесплантно в хорошем качестве В ролях: Suzie Diamond, Angel Dark, Silvia Saint, Claudia Rossi, Jennifer Love, Jessica Sanchez, Keana Moire, Nella, Sarah Twain, Cage, ... 9.7 10 47
Info! Золотая раздача, скачанное не засчитывается.
Торрент: Зарегистрирован [2013-09-03 04:17] · скачан: 1 344 раз
Статус: √ проверено
Размер: 2.18 GB
Как cкачать? Как скачать Сексуальные приключения Красной шапочки через торрент | qTorrent


>> Регистрируемся здесь <<






Отзывы и комментарии о схеме читаем и пишем здесь: ---> Отзывы и комментарии о схеме

Новые благодарочки в телеграм довольных пользователей:
скриншот   скриншот   скриншот   скриншот   скриншот

28-10-2015 19:23 Сексуальные приключения Красной шапочки Скачать торрент  

Не знаю как насчёт сюжета Голливуд или не Голливуд.
Пофиг, а вот девушки, действительно красивые.
То что растянули на 2,5 часа, это действительно по Голливудски.pb.wtf



29-10-2015 04:55 Сексуальные приключения Красной шапочки Скачать торрент  

Фильм действительно классный. Хотя причем сдесь Красная шапочка?pb.wtf



    Дорогой пользователь! Огромная просьба, поблагодарите релизера, оцените раздачу и оставьте свои комментарий, если Вы скачали Сексуальные приключения Красной шапочки через торрент бесплатно! Внесите свою лепту в развитие PiratBit!
    Комментировать посты могут только пользователи прошедшие не сложную регистрацию
    Показать сообщения:    

    Сексуальные приключения Красной шапочки через торрент
    Скачать бесплатно Сексуальные приключения Красной шапочки
    Сексуальные приключения Красной шапочки скачать торрент
    Сексуальные приключения Красной шапочки смотреть онлайн
    Cкачать фильм Сексуальные приключения Красной шапочки бесплатно
    Сексуальные приключения Красной шапочки скачать торрент в хорошем качестве
    Сексуальные приключения Красной шапочки смотреть онлайн бесплатно в хорошем качестве


    Вы не можете начинать темы
    Вы не можете отвечать на сообщения
    Вы не можете редактировать свои сообщения
    Вы не можете удалять свои сообщения
    Вы не можете голосовать в опросах
    Вы не можете прикреплять файлы к сообщениям
    Вы можете скачивать файлы