Ссылка на приватное зеркало нашего сайта всего за 1$. Внимание количество ограничено!!!

2 сезон

iTunes

1 сезон

1

2 сезон

2 сезон

iTunes

1 сезон

RePack

30

Ultimate

ВАЖНО

ИГРА 18+

pack

RePack

MK11
pack

Забери бонус

RePack

jed

!!Акция!!

Alien_Rage

RePack

fifa19

RePack

Assassins Creed: Odyssey

RePack

NEED FOR SPEED™ PAYBACK

4 сезон

9 сезон

Бесстыжие 9 сезон

Все сериалы

все сериалы на PB.wtf

RePack

FAR CRY 5
  

Короли / Kings / Сезон: 1 / Серии 1-13 (13) (Френсис Лоуренс / Francis Lawrence) [2009 г., драма, WEB-DLRip] VO (NewStudio) + Original pb.wtf

Короли через торрент pb.wtf

Размер: 9.58 GB | Добавлен: 7 лет 3 мес. назад | Торрент скачан:27 раз
Скачать  

03-09-2013 07:24 Короли Скачать торрент  

Короли / Kings / Сезон 1 / Серии 1-13 (13)
Год выпуска: 2009
Страна: США
Жанр: драма,
Продолжительность: 00:43:17 серия
Перевод: Профессиональный (одноголосый) /NewStudio/

Режиссер: Френсис Лоуренс / Francis Lawrence

Премьера (РФ) 11 мая 2013



В ролях: Кристофер Иган / Christopher Egan, Эллисон Миллер / Allison Miller, Себастиан Стэн / Sebastian Stan, Джоэль Гарлэнд / Joel Garland, Йен МакШейн / Ian McShane, Джейсон Антун / Jason Antoon, Сарита Чоудхури / Sarita Choudhury, Маколей Калкин / Macaulay Culkin и др.,

Описание: Драматический сериал - современная интерпретация библейского сказания о Давиде и гиганте Голиафе. Между государствами Гилбоа и Геф не прекращается война. Рядовой Давид Шеперд в одну секунду становится знаменитым на всю страну после того как ему удается подбить "Голиафа", танк неприятеля, и спасти из плена сына короля Сайласа. В благодарность король приглашает героя во дворец и устраивает в его честь прием. Молодой человек попадает в высшее политическое общество и наперекор всем невзгодам идет вверх по социальной лестнице.

Качество: WEB-DLRip
Формат: AVI
Видео кодек: XviD
Аудио кодек: AC3
Видео: 720*400 (1.80), 23.976 fps, ~1999 kbps, 0.29 bit/pixel
Аудио#1: 48 kHz, Dolby Digital, 2.0 ch, 224 kbps avg / NewStudio /
Аудио#2: 48 kHz, AC3 Dolby Digital, 2.0 ch, 224 kbps avg / Оригинал /




General
Complete name : E:Kings - Season 1 (NewStudio)Kings.S01E01-02.WEB-DLRip.XviD.AC3.-SVM.avi
Format : AVI
Format/Info : Audio Video Interleave
File size : 1.43 GiB
Duration : 1h 23mn
Overall bit rate : 2 467 Kbps
Writing application : VirtualDubMod 1.5.10.2 (build 2540/release)
Writing library : VirtualDubMod build 2540/release

Video
ID : 0
Format : MPEG-4 Visual
Format profile : Advanced Simple@L5
Format settings, BVOP : Yes
Format settings, QPel : No
Format settings, GMC : No warppoints
Format settings, Matrix : Default (MPEG)
Muxing mode : Packed bitstream
Codec ID : XVID
Codec ID/Hint : XviD
Duration : 1h 23mn
Bit rate : 1 999 Kbps
Width : 720 pixels
Height : 400 pixels
Display aspect ratio : 16:9
Frame rate : 23.976 fps
Resolution : 8 bits
Colorimetry : 4:2:0
Scan type : Progressive
Bits/(Pixel*Frame) : 0.290
Stream size : 1.16 GiB (81%)
Writing library : XviD 1.2.1 (UTC 2008-12-04)

Audio #1
ID : 1
Format : AC-3
Format/Info : Audio Coding 3
Codec ID : 2000
Duration : 1h 23mn
Bit rate mode : Constant
Bit rate : 224 Kbps
Channel(s) : 2 channels
Channel positions : L R
Sampling rate : 48.0 KHz
Stream size : 133 MiB (9%)
Alignment : Split accross interleaves
Interleave, duration : 42 ms (1.00 video frame)
Interleave, preload duration : 500 ms

Audio #2
ID : 2
Format : AC-3
Format/Info : Audio Coding 3
Codec ID : 2000
Duration : 1h 23mn
Bit rate mode : Constant
Bit rate : 224 Kbps
Channel(s) : 2 channels
Channel positions : L R
Sampling rate : 48.0 KHz
Stream size : 133 MiB (9%)
Alignment : Split accross interleaves
Interleave, duration : 42 ms (1.00 video frame)
Interleave, preload duration : 500 ms


Короли скачать торрент


pb.wtf



Скачать Короли через торрент http://pic.kartinco.top/images/3/6oudmnupyi.png Скачать фильм Короли через торрент бесплантно в хорошем качестве Описание: Драматический сериал - современная интерпретация библейского сказания о Давиде и гиганте Голиафе. Между государствами Гилбоа и ... 9.5 10 4
Info! Золотая раздача, скачанное не засчитывается.
Торрент: Зарегистрирован [2013-09-03 07:24] · скачан: 27 раз
Статус: √ проверено
Размер: 9.58 GB
Как cкачать? Как скачать Короли через торрент | qTorrent

28-11-2019 20:33  

Отключить всю рекламу на сайте

    Дорогой пользователь! Огромная просьба, поблагодарите релизера, оцените раздачу и оставьте свои комментарий, если Вы скачали Короли через торрент бесплатно! Внесите свою лепту в развитие PiratBit!
    Комментировать посты могут только пользователи прошедшие не сложную регистрацию
    Показать сообщения:    

    Короли через торрент
    Скачать бесплатно Короли
    Короли скачать торрент
    Короли смотреть онлайн
    Cкачать фильм Короли бесплатно
    Короли скачать торрент в хорошем качестве
    Короли смотреть онлайн бесплатно в хорошем качестве


    Вы не можете начинать темы
    Вы не можете отвечать на сообщения
    Вы не можете редактировать свои сообщения
    Вы не можете удалять свои сообщения
    Вы не можете голосовать в опросах
    Вы не можете прикреплять файлы к сообщениям
    Вы можете скачивать файлы