Ссылка на приватное зеркало нашего сайта всего за 1$. Внимание количество ограничено!!!

2 сезон

iTunes

1 сезон

1

2 сезон

2 сезон

iTunes

1 сезон

RePack

30

Ultimate

ВАЖНО

ИГРА 18+

pack

RePack

MK11
pack

Забери бонус

RePack

jed

!!Акция!!

Alien_Rage

RePack

fifa19

RePack

Assassins Creed: Odyssey

RePack

NEED FOR SPEED™ PAYBACK

4 сезон

9 сезон

Бесстыжие 9 сезон

Все сериалы

все сериалы на PB.wtf

RePack

FAR CRY 5
  

Моя жена и дети / My Wife and Kids / Сезон: 2 / Серии 01-29 (29) (Damon Wayans) [2001-2002 г., комедия, SATRip] [MVO] pb.wtf

Моя жена и дети через торрент pb.wtf

Размер: 6.32 GB | Добавлен: 7 лет 2 мес. назад | Торрент скачан:33 раза
Скачать  

03-09-2013 11:12 Моя жена и дети Скачать торрент  

Моя жена и дети / My Wife and Kids (Полный 2-ой сезон)

Год выпуска: 2001-2002
Страна: США
Жанр: комедия
Продолжительность: ~00:20
Перевод: Профессиональный (многоголосый, закадровый) (Fox Life)
Режиссер: Damon Wayans

В ролях: Damon Wayans (Michael Kyle), Jazz Raycole (Claire Kyle), George O. Gore II (Michael Kyle Jr.), Tisha Campbell (Janet Marie "Jay" Kyle), Parker McKenna Posey (Kady Kyle)

Описание: МАЙКЛ КАЙЛ – сторонник патриархата, поэтому у него в доме царит особенный стиль управления. Он учит детей жизни с характерным только ему юмором и мудростью. Жене Майкла, ДЖАНЕТ, удается успевать везде – и заниматься домом, и строить карьеру, и обмениваться остротами с мужем. У них есть трое детей: ДЖУНИОР, которому частенько достается от остроумного и строгого папочки; дочка-подросток КЛЭР, у которой постоянно меняется настроение и вечно не хватает денег, и маленькая КЭДИ, которая редко позволяет папе сказать последнее слово.



Качество: SATRip
Формат: AVI
Видео кодек: DivX
Аудио кодек: MP3
Видео: 624x352 (1.77:1), 25 fps, DivX Codec 6.8.5 ~1365 kbps avg, 0.25 bit/pixel
Аудио: 48 kHz, MPEG Layer 3, 2 ch, ~128.00 kbps avg
E:INTERNETMy_Wife_and_Kids_S02_SATRipmy_wife_and_kids.s02e01.rus.satrip.novafilm.tv.avi
General
Complete name : E:INTERNETMy_Wife_and_Kids_S02_SATRipmy_wife_and_kids.s02e01.rus.satrip.novafilm.tv.avi
Format : AVI
Format/Info : Audio Video Interleave
File size : 223 MiB
Duration : 20mn 44s
Overall bit rate : 1 503 Kbps
Writing application : VirtualDubMod 1.5.10.2 (build 2542/release)
Writing library : VirtualDubMod build 2542/release
Video #0
ID : 0
Format : MPEG-4 Visual
Format settings, BVOP : 1
Format settings, QPel : No
Format settings, GMC : No warppoints
Format settings, Matrix : Default (H.263)
Muxing mode : Packed bitstream
Codec ID : DX50
Codec ID/Hint : DivX 5
Duration : 20mn 44s
Bit rate : 1 366 Kbps
Width : 624 pixels
Height : 352 pixels
Display aspect ratio : 16:9
Frame rate : 25.000 fps
Color space : YUV
Chroma subsampling : 4:2:0
Bit depth : 8 bits
Scan type : Progressive
Compression mode : Lossy
Bits/(Pixel*Frame) : 0.249
Stream size : 203 MiB (91%)
Writing library : DivX 6.8.5 (UTC 2009-08-20)
Audio #1
ID : 1
Format : MPEG Audio
Format version : Version 1
Format profile : Layer 3
Mode : Joint stereo
Mode extension : MS Stereo
Codec ID : 55
Codec ID/Hint : MP3
Duration : 20mn 44s
Bit rate mode : Constant
Bit rate : 128 Kbps
Channel(s) : 2 channels
Sampling rate : 48.0 KHz
Compression mode : Lossy
Stream size : 19.0 MiB (9%)
Alignment : Aligned on interleaves
Interleave, duration : 40 ms (1.00 video frame)
Interleave, preload duration : 504 ms
pb.wtf



Скачать Моя жена и дети через торрент http://pic.kartinco.top/images/3/72aoq3zv7g.jpg Скачать фильм Моя жена и дети через торрент бесплантно в хорошем качестве Описание: МАЙКЛ КАЙЛ – сторонник патриархата, поэтому у него в доме царит особенный стиль управления. Он учит детей жизни с характерным ... 10 10 3
Info! Золотая раздача, скачанное не засчитывается.
Торрент: Зарегистрирован [2013-09-03 11:12] · скачан: 33 раз
Статус: √ проверено
Размер: 6.32 GB
Как cкачать? Как скачать Моя жена и дети через торрент | qTorrent

28-11-2019 20:33  

Отключить всю рекламу на сайте

    Дорогой пользователь! Огромная просьба, поблагодарите релизера, оцените раздачу и оставьте свои комментарий, если Вы скачали Моя жена и дети через торрент бесплатно! Внесите свою лепту в развитие PiratBit!
    Комментировать посты могут только пользователи прошедшие не сложную регистрацию
    Показать сообщения:    

    Моя жена и дети через торрент
    Скачать бесплатно Моя жена и дети
    Моя жена и дети скачать торрент
    Моя жена и дети смотреть онлайн
    Cкачать фильм Моя жена и дети бесплатно
    Моя жена и дети скачать торрент в хорошем качестве
    Моя жена и дети смотреть онлайн бесплатно в хорошем качестве


    Вы не можете начинать темы
    Вы не можете отвечать на сообщения
    Вы не можете редактировать свои сообщения
    Вы не можете удалять свои сообщения
    Вы не можете голосовать в опросах
    Вы не можете прикреплять файлы к сообщениям
    Вы можете скачивать файлы