Ссылка на приватное зеркало нашего сайта всего за 1$. Внимание количество ограничено!!!

2 сезон

iTunes

1 сезон

1

2 сезон

2 сезон

iTunes

1 сезон

RePack

30

Ultimate

ВАЖНО

ИГРА 18+

pack

RePack

MK11
pack

Забери бонус

RePack

jed

!!Акция!!

Alien_Rage

RePack

fifa19

RePack

Assassins Creed: Odyssey

RePack

NEED FOR SPEED™ PAYBACK

4 сезон

9 сезон

Бесстыжие 9 сезон

Все сериалы

все сериалы на PB.wtf

RePack

FAR CRY 5
  

Чак / Chuck / Сезон: 4 / Серии: 1-24 (24) (Крис Федак, Джош Шварц) [2011, фантастика, боевик, комедия, HDRip] MVO (ВГТРК) pb.wtf

Чак через торрент pb.wtf

Размер: 9.39 GB | Добавлен: 7 лет 2 мес. назад | Торрент скачан:34 раза
Скачать  

04-09-2013 04:47 Чак Скачать торрент  

Чак / Chuck / Сезон: 4 / Серии: 1-24 (24)
Год выпуска: 2011
Страна: США
Жанр: фантастика, боевик, комедия,
Продолжительность: 00:43:01 серия
Перевод: Профессиональный (многоголосый закадровый) - /ВГТРК/

Режиссер: Крис Федак МакДжи Джош Шварц



В ролях: Закари Леви, Ивонн Страховски, Адам Болдуин, Вик Сахай, Скотт Крински, Джош Гомез, Бонита Фридериси, Джесси Хейман, Сара Ланкастер, Линда Гамильтон, Дольф Лундгрен,


Описание: «Купи больше» отстроили и теперь это новейшая технологизированная база ЦРУ и АНБ. Морган становится менеджером магазина и возвращает весь предыдущий персонал во главе с Джеффом и Лестером. Кроме того, после разрыва с Ханной новоявленный менеджер начинает встречаться с дочерью Кейси. Чак и Морган отправляются на поиски мамы Чака. Позже им в этом помогают Кейси и Сара. Оказалось, что мать Чака — бывший агент ЦРУ, которая почти 20 лет работает в преступной организации, занимающейся производством и сбытом оружия «Волков Индастрис». К тому же выясняется, что, скрываясь от своих родных, Мэри в прямом смысле спасала их от постоянной угрозы со стороны Волкова. Она пожертвовала семейной жизнью, покинув детей много лет назад, в обмен на их безопасность. Также Чак скоро станет дядей, поэтому он с ещё большим рвением хочет найти маму. Сара становится двойным агентом у «Волков Индастрис» и они вместе с Чаком, матерью и его командой сажают Волкова в тюрьму и разрушают компанию. У Эли рождается дочь Клара. Чак делает предложение Саре и они готовятся к свадьбе...

Качество: HDRip
Формат: AVI
Видео кодек: XviD
Аудио кодек: AC3
Видео: 656x368 (16:9), 23.976 fps, 1 100 Kbps
Аудио#1: 192 Kbps, 48.0 KHz, 2 ch |ВГТРК|
Звук предоставил: Brablay888, Faker020285
Работа со звуком: HPotter
Подготовка видео: Мосенька




General
Complete name : Chuck.s04e01.HDRip.avi
Format : AVI
Format/Info : Audio Video Interleave
File size : 400 MiB
Duration : 43mn 1s
Overall bit rate : 1 301 Kbps
Writing application : VirtualDubMod 1.5.10.3 | (build 2550/release)
Writing library : VirtualDubMod build 2550/release

Video
ID : 0
Format : MPEG-4 Visual
Format profile : Advanced Simple@L5
Format settings, BVOP : Yes
Format settings, QPel : No
Format settings, GMC : No warppoints
Format settings, Matrix : Custom
Codec ID : XVID
Codec ID/Hint : XviD
Duration : 43mn 1s
Bit rate : 1 100 Kbps
Width : 656 pixels
Height : 368 pixels
Display aspect ratio : 16:9
Frame rate : 23.976 fps
Color space : YUV
Chroma subsampling : 4:2:0
Bit depth : 8 bits
Scan type : Progressive
Bits/(Pixel*Frame) : 0.190
Stream size : 338 MiB (85%)
Writing library : XviD 63

Audio
ID : 1
Format : AC-3
Format/Info : Audio Coding 3
Mode extension : CM (complete main)
Codec ID : 2000
Duration : 43mn 1s
Bit rate mode : Constant
Bit rate : 192 Kbps
Channel(s) : 2 channels
Channel positions : Front: L R
Sampling rate : 48.0 KHz
Bit depth : 16 bits
Stream size : 59.1 MiB (15%)
Alignment : Split accross interleaves
Interleave, duration : 42 ms (1.00 video frame)
Interleave, preload duration : 500 ms


Чак / Chuck скачать торрент


pb.wtf



Скачать Чак через торрент http://pic.kartinco.top/images/3/3dqg7hvqtc.jpg Скачать фильм Чак через торрент бесплантно в хорошем качестве Описание: «Купи больше» отстроили и теперь это новейшая технологизированная база ЦРУ и АНБ. Морган становится менеджером магазина и ... 10 10 2
Info! Золотая раздача, скачанное не засчитывается.
Торрент: Зарегистрирован [2013-09-04 04:47] · скачан: 34 раз
Статус: √ проверено
Размер: 9.39 GB
Как cкачать? Как скачать Чак через торрент | qTorrent

28-11-2019 20:33  

Отключить всю рекламу на сайте

    Дорогой пользователь! Огромная просьба, поблагодарите релизера, оцените раздачу и оставьте свои комментарий, если Вы скачали Чак через торрент бесплатно! Внесите свою лепту в развитие PiratBit!
    Комментировать посты могут только пользователи прошедшие не сложную регистрацию
    Показать сообщения:    

    Чак через торрент
    Скачать бесплатно Чак
    Чак скачать торрент
    Чак смотреть онлайн
    Cкачать фильм Чак бесплатно
    Чак скачать торрент в хорошем качестве
    Чак смотреть онлайн бесплатно в хорошем качестве


    Вы не можете начинать темы
    Вы не можете отвечать на сообщения
    Вы не можете редактировать свои сообщения
    Вы не можете удалять свои сообщения
    Вы не можете голосовать в опросах
    Вы не можете прикреплять файлы к сообщениям
    Вы можете скачивать файлы