Ссылка на приватное зеркало нашего сайта всего за 1$. Внимание количество ограничено!!!

2 сезон

iTunes

1 сезон

1

2 сезон

2 сезон

iTunes

1 сезон

RePack

30

Ultimate

ВАЖНО

ИГРА 18+

pack

RePack

MK11
pack

Забери бонус

RePack

jed

!!Акция!!

Alien_Rage

RePack

fifa19

RePack

Assassins Creed: Odyssey

RePack

NEED FOR SPEED™ PAYBACK

4 сезон

9 сезон

Бесстыжие 9 сезон

Все сериалы

все сериалы на PB.wtf

RePack

FAR CRY 5
  

Чак / Chuck / Сезон: 5 / Серии: 1-13 (13) (Крис Федак, Джош Шварц) [2011-2012, комедия, боевик, драма, HDTVRip] VO,DVO (ChuckSite) pb.wtf

Чак через торрент pb.wtf

Размер: 4.64 GB | Добавлен: 7 лет 2 мес. назад | Торрент скачан:53 раза
Скачать  

04-09-2013 05:32 Чак Скачать торрент  

Чак / Chuck / Сезон: 5 / Серии: 1-13 (13)
Год выпуска: 2011-2012
Страна: США
Жанр: боевик, комедия, фантастика,
Продолжительность: 00:43:27 мин серия
Перевод: 1 серия - любительский одноголосый закадровый,
2-13 серии - любительский двухголосый закадровый(ChuckSite)

Режиссер: Джош Шварц Крис Федак МакДжи



В ролях: Закари Леви, Ивонн Страховски, Адам Болдуин, Джош Гомез, Сара Ланкастер, Райан МакПартлин, Вик Сахай, Скотт Крински, Бонита Фридериси.,

Описание: Чак и Сара создают свое агентство «Кармайкл Индастриз», которое выполняет заказы по шпионажу. Их главным оружием является Морган, который ещё не совсем умеет управляться с интерсектом. Но его все же пускают на первую миссию, где он все с треском проваливает. Морган не доволен тем, что после его провала ему приказали не участвовать в миссиях, а Чаку тем временем велено обучить своего лучшего друга управлять интерсектом. Но Чаку не удается это сделать и они ссорятся, после чего Морган перестает считать Чака своим другом. У «Кармайкл Индастриз» появляется соперник на рынке шпионажа, это — «Вербански Корпарэйшн», главой которой является Гертруда Вербански, некогда знакомая с Джоном Кейси.

Качество: HDTVRip
Формат: AVI
Видео кодек: XviD
Аудио кодек: MP3
Видео: 624x352 (16:9), 23.976 fps, XviD, 961 Kbps
Аудио#1: 192 Kbps, 48.0 KHz, 2 ch 1 серия VO
Аудио#2: 192 Kbps, 48.0 KHz, 2 ch 2-13 серии DVO
Релиз:
Перевод: Jinx, REX
Редакция: Jinx
Озвучка: Ex1l(1,12-13 серия), Jinx и HeroyAsfalta (2-11 серия)
Монтаж и сведение звука: Jinx




General
Complete name : Chuck.5.01.Rus.ChuckSite.avi
Format : AVI
Format/Info : Audio Video Interleave
File size : 361 MiB
Duration : 43mn 27s
Overall bit rate : 1 162 Kbps
Writing application : VirtualDubMod 1.5.10.2 (build 2540/release)
Writing library : VirtualDubMod build 2540/release

Video
ID : 0
Format : MPEG-4 Visual
Format profile : Advanced Simple@L5
Format settings, BVOP : Yes
Format settings, QPel : No
Format settings, GMC : No warppoints
Format settings, Matrix : Default (H.263)
Codec ID : XVID
Codec ID/Hint : XviD
Duration : 43mn 27s
Bit rate : 961 Kbps
Width : 624 pixels
Height : 352 pixels
Display aspect ratio : 16:9
Frame rate : 23.976 fps
Color space : YUV
Chroma subsampling : 4:2:0
Bit depth : 8 bits
Scan type : Progressive
Bits/(Pixel*Frame) : 0.182
Stream size : 299 MiB (83%)
Writing library : XviD 1.2.1 (UTC 2008-12-04)

Audio
ID : 1
Format : MPEG Audio
Format version : Version 1
Format profile : Layer 3
Codec ID : 55
Codec ID/Hint : MP3
Duration : 43mn 27s
Bit rate mode : Constant
Bit rate : 192 Kbps
Channel(s) : 2 channels
Sampling rate : 48.0 KHz
Stream size : 59.7 MiB (17%)
Alignment : Aligned on interleaves
Interleave, duration : 42 ms (1.00 video frame)
Interleave, preload duration : 504 ms
27 января 2012 года сериал официально завершился. Спасибо что смотрели с нами *Чак*

Чак / Chuck скачать торрент


pb.wtf



Скачать Чак через торрент http://pic.kartinco.top/images/3/1fl6hcws2p.jpg Скачать фильм Чак через торрент бесплантно в хорошем качестве Описание: Чак и Сара создают свое агентство «Кармайкл Индастриз», которое выполняет заказы по шпионажу. Их главным оружием является Морган, ... 10 10 2
Info! Золотая раздача, скачанное не засчитывается.
Торрент: Зарегистрирован [2013-09-04 05:32] · скачан: 53 раз
Статус: √ проверено
Размер: 4.64 GB
Как cкачать? Как скачать Чак через торрент | qTorrent

28-11-2019 20:33  

Отключить всю рекламу на сайте

    Дорогой пользователь! Огромная просьба, поблагодарите релизера, оцените раздачу и оставьте свои комментарий, если Вы скачали Чак через торрент бесплатно! Внесите свою лепту в развитие PiratBit!
    Комментировать посты могут только пользователи прошедшие не сложную регистрацию
    Показать сообщения:    

    Чак через торрент
    Скачать бесплатно Чак
    Чак скачать торрент
    Чак смотреть онлайн
    Cкачать фильм Чак бесплатно
    Чак скачать торрент в хорошем качестве
    Чак смотреть онлайн бесплатно в хорошем качестве


    Вы не можете начинать темы
    Вы не можете отвечать на сообщения
    Вы не можете редактировать свои сообщения
    Вы не можете удалять свои сообщения
    Вы не можете голосовать в опросах
    Вы не можете прикреплять файлы к сообщениям
    Вы можете скачивать файлы