Ссылка на приватное зеркало нашего сайта всего за 1$. Внимание количество ограничено!!!

2 сезон

iTunes

1 сезон

1

2 сезон

2 сезон

iTunes

1 сезон

RePack

30

Ultimate

ВАЖНО

ИГРА 18+

pack

RePack

MK11
pack

Забери бонус

RePack

jed

!!Акция!!

Alien_Rage

RePack

fifa19

RePack

Assassins Creed: Odyssey

RePack

NEED FOR SPEED™ PAYBACK

4 сезон

9 сезон

Бесстыжие 9 сезон

Все сериалы

все сериалы на PB.wtf

RePack

FAR CRY 5
  

Последний день / Impact (Майк Роул / Mike Rohl)(1-2 серии(из 2) [2008 г., фантастика, боевик, приключения, DVDRip] pb.wtf

Последний день через торрент pb.wtf

Размер: 2.73 GB | Добавлен: 7 лет 2 мес. назад | Торрент скачан:126 раз
Скачать  

04-09-2013 08:12 Последний день Скачать торрент  

Последний день / Impact(1-2 серии(из 2)
Год выпуска: 2008
Страна: Германия / США / Канада
Жанр: фантастика, боевик, приключения,
Продолжительность: 01:30:25 + 01:31:28
Перевод: Профессиональный (многоголосый, закадровый)

Режиссер: Майк Роул

Бюджет: $14 000 000



В ролях: Джоэль Анониссэн, Бен Эйрс, Оуэн Бэст, Наташа Колис, Эрик Б. Кэрбэри, Бренда Кричлоу, Джеймс Кромуэлл, Кендалл Кросс, Стивен Калп,

Описание: Климатические изменения, температурные скачки и различные аномалии буквально обрушились на нашу планету. Причина происходящего — внезапное разрушение Луны и проникновение ее отколовшихся частей в земные слои атмосферы. Решено уничтожить Луну, пока она не погубила Землю!

Качество: DVDRip
Формат: AVI
Видео кодек: XviD
Аудио кодек: AC3
Видео: 704x384 (16:9), 25.000 fps, 1 768 Kbps
Аудио#1: 384 Kbps, 48.0 KHz, 6 ch




General
Complete name : Poslednij.den.2008.P.DVDRip.1..avi
Format : AVI
Format/Info : Audio Video Interleave
File size : 1.37 GiB
Duration : 1h 30mn
Overall bit rate : 2 162 Kbps
Movie name : Impact (2008) #1

Writing application : VirtualDubMod 1.5.4.1 (build 2178/release)

Video
ID : 0
Format : MPEG-4 Visual
Format profile : Advanced Simple@L5
Format settings, BVOP : Yes
Format settings, QPel : No
Format settings, GMC : No warppoints
Format settings, Matrix : Default (MPEG)
Muxing mode : Packed bitstream
Codec ID : XVID
Codec ID/Hint : XviD
Duration : 1h 30mn
Bit rate : 1 768 Kbps
Width : 704 pixels
Height : 384 pixels
Display aspect ratio : 16:9
Frame rate : 25.000 fps
Color space : YUV
Chroma subsampling : 4:2:0
Bit depth : 8 bits
Scan type : Progressive
Bits/(Pixel*Frame) : 0.262
Stream size : 1.12 GiB (82%)
Writing library : XviD 1.2.0.dev47 (UTC 2006-11-01)

Audio
ID : 1
Format : AC-3
Format/Info : Audio Coding 3
Mode extension : CM (complete main)
Codec ID : 2000
Duration : 1h 30mn
Bit rate mode : Constant
Bit rate : 384 Kbps
Channel(s) : 6 channels
Channel positions : Front: L C R, Side: L R, LFE
Sampling rate : 48.0 KHz
Bit depth : 16 bits
Stream size : 248 MiB (18%)
Alignment : Split accross interleaves
Interleave, duration : 40 ms (1.00 video frame)
Interleave, preload duration : 500 ms

pb.wtf



Скачать Последний день через торрент http://pic.kartinco.top/images/3/9zs62u3j39.jpg Скачать фильм Последний день через торрент бесплантно в хорошем качестве Описание: Климатические изменения, температурные скачки и различные аномалии буквально обрушились на нашу планету. Причина происходящего — ... 7.8 10 8
Info! Золотая раздача, скачанное не засчитывается.
Торрент: Зарегистрирован [2013-09-04 08:12] · скачан: 126 раз
Статус: √ проверено
Размер: 2.73 GB
Как cкачать? Как скачать Последний день через торрент | qTorrent

% Раздел Тема Автор DL S | L
Зарубежные сериалы [ 2.73 GB ] Последний день / Impact [2008 DVDRip] Sудья Скачать
1 | 0
Фильмы 2006-2008 [ 2.73 GB ] Последний день / Impact [2008 DVDRip лицензия] Лёлька Скачать
1 | 0

28-11-2019 20:33  

Отключить всю рекламу на сайте

    Дорогой пользователь! Огромная просьба, поблагодарите релизера, оцените раздачу и оставьте свои комментарий, если Вы скачали Последний день через торрент бесплатно! Внесите свою лепту в развитие PiratBit!
    Комментировать посты могут только пользователи прошедшие не сложную регистрацию
    Показать сообщения:    

    Последний день через торрент
    Скачать бесплатно Последний день
    Последний день скачать торрент
    Последний день смотреть онлайн
    Cкачать фильм Последний день бесплатно
    Последний день скачать торрент в хорошем качестве
    Последний день смотреть онлайн бесплатно в хорошем качестве


    Вы не можете начинать темы
    Вы не можете отвечать на сообщения
    Вы не можете редактировать свои сообщения
    Вы не можете удалять свои сообщения
    Вы не можете голосовать в опросах
    Вы не можете прикреплять файлы к сообщениям
    Вы можете скачивать файлы