2 сезон

iTunes

1 сезон

1

iTunes

iTunes

iTunes

1 сезон

RePack

30

ИГРА 18+

pack

ВАЖНО

!!Акция!!

Alien_RageХит недели

RePack

MK11
pack

Забери бонус

RePack

jed

!!Акция!!

Alien_Rage

RePack

fifa19

RePack

Assassins Creed: Odyssey

RePack

NEED FOR SPEED™ PAYBACK

4 сезон

9 сезон

Бесстыжие 9 сезон

Все сериалы

все сериалы на PB.wtf

RePack

FAR CRY 5
  

Безумцы / The Crazies (Брек Айснер) [2010, ужасы, триллер, BDRip,Дубляж] pb.wtf

Безумцы через торрент pb.wtf

Размер: 1.46 GB | Добавлен: 7 лет 1 мес. назад | Торрент скачан:127 раз
Скачать  

05-09-2013 03:51 Безумцы Скачать торрент  

Безумцы / The Crazies«Fear Thy Neighbor»

Год выпуска: 2010
Страна: США , ОАЭ
Жанр: ужасы, триллер
Продолжительность: 01:40:56
Перевод: Профессиональный (дублированный)

Режиссер: Брек Айснер
Сценарий: Скотт Козар, Рэй Райт, Джордж А. Ромеро
Продюсер: Майкл Агиляр, Роб Кауэн, Дин Георгарис, ...


Бюджет: $20 000 000
Сборы в США: $39 103 378
Сборы в мире: + $15 683 234 = $54 786 612
Сборы в России: $584 574
Зрители: Германия 111.7 тыс. , Россия 105.9 тыс.

Премьера (мир): 23 февраля 2010, ...
Премьера (РФ): 25 марта 2010, «Каскад»
Релиз на DVD: 22 апреля 2010, «Columbia/Sony», ...
Релиз на Blu-Ray: 22 апреля 2010, «Columbia/Sony», ...
Рейтинг MPAA: Лицам до 17 лет обязательно присутствие взрослого


В ролях: Тимоти Олифант / Timothy Olyphant (David), Рада Митчелл / Radha Mitchell (Judy), Джо Андерсон / Joe Anderson (Deputy Russell Clank), Даниэль Панабэйкер / Danielle Panabaker (Becca), Кристи Линн Смит / Christie Lynn Smith (Deardra Farnum), Бретт Рикаби / Brett Rickaby (Bill Farnum), Престон Бэйли / Preston Bailey (Nicholas Farnum), Джон Эйлуорд / John Aylward (Mayor Hobbs)


Описание: В окрестностях небольшого городка падает самолёт, на борту которого чрезвычайно опасный вирус. Зараза попадает в водную систему города, люди один за другим «заболевают» и начинают яростно набрасываться на всех подряд. Военные оперативно запирают город на карантин, периодически отстреливая зараженных.



Качество: BDRip
Формат: AVI
Видео кодек: XviD
Аудио кодеk: AC3
Видео: 720x304 (2.35:1), 23.976 fps, XviD, 1 670 Kbps
Аудио: Аудио #1: AC3, 384 Kbps, 48.0 KHz, 6 ch

Код:

General
Complete name                    : Bezumcy.2010.avi
Format                           : AVI
Format/Info                      : Audio Video Interleave
File size                        : 1.46 GiB
Duration                         : 1h 40mn
Overall bit rate                 : 2 064 Kbps
Movie name                       : Безумцы / The Crazies (2010)
Director                         : vladaudi (BDRip 1080)
Writing application              : VirtualDubMod 1.5.10.3 | www.virtualdub-fr.org || (build 2550/release)
Copyright                        : HQ-ViDEO (www.hq-video.ru)
Comment                          : 03.07.2010

Video
ID                               : 0
Format                           : MPEG-4 Visual
Format profile                   : Advanced Simple@L5
Format settings, BVOP            : Yes
Format settings, QPel            : No
Format settings, GMC             : No warppoints
Format settings, Matrix          : Default (MPEG)
Codec ID                         : XVID
Codec ID/Hint                    : XviD
Duration                         : 1h 40mn
Bit rate                         : 1 670 Kbps
Width                            : 720 pixels
Height                           : 304 pixels
Display aspect ratio             : 2.35:1
Frame rate                       : 23.976 fps
Color space                      : YUV
Chroma subsampling               : 4:2:0
Bit depth                        : 8 bits
Scan type                        : Progressive
Bits/(Pixel*Frame)               : 0.318
Stream size                      : 1.18 GiB (81%)
Writing library                  : XviD 1.2.1 (UTC 2008-12-04)

Audio
ID                               : 1
Format                           : AC-3
Format/Info                      : Audio Coding 3
Mode extension                   : CM (complete main)
Codec ID                         : 2000
Duration                         : 1h 40mn
Bit rate mode                    : Constant
Bit rate                         : 384 Kbps
Channel(s)                       : 6 channels
Channel positions                : Front: L C R, Side: L R, LFE
Sampling rate                    : 48.0 KHz
Bit depth                        : 16 bits
Stream size                      : 277 MiB (19%)
Alignment                        : Split accross interleaves
Interleave, duration             : 42 ms (1.00 video frame)
Interleave, preload duration     : 500 ms







pb.wtf



Скачать Безумцы через торрент http://i57.fastpic.ru/big/2013/0905/e3/0906bd8400844008a29e16b8dea6cde3.jpg Скачать фильм Безумцы через торрент бесплантно в хорошем качестве Описание: В окрестностях небольшого городка падает самолёт, на борту которого чрезвычайно опасный вирус. Зараза попадает в водную систему ... 9.8 10 4
Info! Золотая раздача, скачанное не засчитывается.
Торрент: Зарегистрирован [2013-09-05 03:51] · скачан: 127 раз
Статус: √ проверено
Размер: 1.46 GB
Как cкачать? Как скачать Безумцы через торрент | qTorrent

% Раздел Тема Автор DL S | L
Фильмы 2010 [ 1.37 GB ] Безумцы / The Crazies [2010 DVDRip] / лицензия DEVI Скачать
1 | 0
Фильмы (Blu-ray, BD-Remux, HDDVD) [ 28.18 GB ] Безумцы / The Crazies [2010 BDRemux 1080p] DUB + AVO [Юрий Сербин] + VO [R1shpil] sheker187 Скачать
2 | 0
T Фильмы [HD 720p, 1080p] (Хороший звук DUB, MVO) [ 8.37 GB ] Безумцы / The Crazies [2010 BDRip 1080p - [BD CEE] Ворон Скачать
1 | 0
Фильмы [HD 720p, 1080p] (Хороший звук DUB, MVO) [ 2.2 GB ] Безумцы / The Crazies [2010 BDRip ] Sудья Скачать
1 | 0
Фильмы [HD 720p, 1080p] (Хороший звук DUB, MVO) [ 4.36 GB ] Безумцы / The Crazies [2010 BDRip] Flint3 Скачать
1 | 0
Фильмы 2010 [ 1.77 GB ] Безумцы / The Crazies [2010 BDRip-AVC] DUB|Original|Sub -=BIGBOSS=- Скачать
1 | 0
Фильмы 2010 [ 1.46 GB ] Безумцы / The Crazies [2010 ... HDRip] Venxxx Скачать
1 | 0

28-11-2019 20:33  

Отключить всю рекламу на сайте

05-09-2013 04:37 Безумцы Скачать торрент  

shultz
Перевод в заголовке укажи.pb.wtf



    Дорогой пользователь! Огромная просьба, поблагодарите релизера, оцените раздачу и оставьте свои комментарий, если Вы скачали Безумцы через торрент бесплатно! Внесите свою лепту в развитие PiratBit!
    Комментировать посты могут только пользователи прошедшие не сложную регистрацию
    Показать сообщения:    

    Безумцы через торрент
    Скачать бесплатно Безумцы
    Безумцы скачать торрент
    Безумцы смотреть онлайн
    Cкачать фильм Безумцы бесплатно
    Безумцы скачать торрент в хорошем качестве
    Безумцы смотреть онлайн бесплатно в хорошем качестве


    Вы не можете начинать темы
    Вы не можете отвечать на сообщения
    Вы не можете редактировать свои сообщения
    Вы не можете удалять свои сообщения
    Вы не можете голосовать в опросах
    Вы не можете прикреплять файлы к сообщениям
    Вы можете скачивать файлы