Ссылка на приватное зеркало нашего сайта всего за 1$. Внимание количество ограничено!!!

2 сезон

iTunes

1 сезон

1

2 сезон

2 сезон

iTunes

1 сезон

RePack

30

Ultimate

ВАЖНО

ИГРА 18+

pack

RePack

MK11
pack

Забери бонус

RePack

jed

!!Акция!!

Alien_Rage

RePack

fifa19

RePack

Assassins Creed: Odyssey

RePack

NEED FOR SPEED™ PAYBACK

4 сезон

9 сезон

Бесстыжие 9 сезон

Все сериалы

все сериалы на PB.wtf

RePack

FAR CRY 5
  

Пан Американ / Pan Am / Сезон: 1 / Серии 1-14 (14) (Томас Шламми) [2011 г., драма, WEB-DLRip] DUB, MVO(SET Russia) Original, Sub pb.wtf

Пан Американ через торрент pb.wtf

Размер: 6.17 GB | Добавлен: 7 лет 2 мес. назад | Торрент скачан:5 раз
Скачать  

05-09-2013 05:50 Пан Американ Скачать торрент  

Пан Американ / Pan Am
Год выпуска: 2011
Страна: США
Жанр: драма, история, ,
Продолжительность: ~00:44:03 серия
Перевод: Профессиональный (полное дублирование) /SET Russia/ (1 и 2 серия)
Профессиональный (многоголосый, закадровый) /SET Russia/ (с 3 серии...)
Субтитры: Отдельно Русские [el_brujo] / Английские *.srt

Режиссер: Эндрю Бернштейн Джон Фортенберри Томас Шламми



В ролях: Кристина Риччи (Christina Ricci), Марго Робби (Margot Robbie), Майкл Мозли (Michael Mosley), Карин Ванасс (Karine Vanasse), Майк Вогель (Mike Vogel), Келли Гарнер (Kelli Garner) и др.,

Описание: Действие драматического сериала Pan Am переносит нас в 1963 г., в век высоких скоростей. Новый роскошный авиалайнер отправляется в полет. Пассажиры и команда становятся участниками любовных романов, интриг и даже международного шпионажа. Главная стюардесса, Мэгги, берет шефство над неопытной помощницей, Лорой, а главный пилот, Тед, очаровывает пассажиров. Отправьтесь в незабываемое путешествие вместе с командой Pan Am.

Качество: WEB-DLRip
Формат: AVI
Видео кодек: XviD
Аудио кодек: MP3
Видео: 656x368 (16:9), 23.976 fps, XviD, 1 165 Kbps
Аудио#1: Rus: 128 Kbps, 48.0 KHz, 2 ch |SET Russia|
Аудио#2: Eng:128 Kbps, 48.0 KHz, 2 ch




General
Complete name : Pan.Am.s01e01.web-dlrip.Rus.[SET].Eng.avi
Format : AVI
Format/Info : Audio Video Interleave
File size : 452 MiB
Duration : 44mn 3s
Overall bit rate : 1 435 Kbps
Writing application : VirtualDubMod 1.5.10.2 (build 2540/release)
Writing library : VirtualDubMod build 2540/release

Video
ID : 0
Format : MPEG-4 Visual
Format profile : Advanced Simple@L5
Format settings, BVOP : Yes
Format settings, QPel : No
Format settings, GMC : No warppoints
Format settings, Matrix : Default (MPEG)
Muxing mode : Packed bitstream
Codec ID : XVID
Codec ID/Hint : XviD
Duration : 44mn 3s
Bit rate : 1 165 Kbps
Width : 656 pixels
Height : 368 pixels
Display aspect ratio : 16:9
Frame rate : 23.976 fps
Color space : YUV
Chroma subsampling : 4:2:0
Bit depth : 8 bits
Scan type : Progressive
Bits/(Pixel*Frame) : 0.201
Stream size : 367 MiB (81%)
Writing library : XviD 1.2.1 (UTC 2008-12-04)

Audio #1
ID : 1
Format : MPEG Audio
Format version : Version 1
Format profile : Layer 3
Codec ID : 55
Codec ID/Hint : MP3
Duration : 44mn 3s
Bit rate mode : Constant
Bit rate : 128 Kbps
Channel(s) : 2 channels
Sampling rate : 48.0 KHz
Stream size : 40.3 MiB (9%)
Alignment : Aligned on interleaves
Interleave, duration : 42 ms (1.00 video frame)
Interleave, preload duration : 504 ms
Writing library : LAME3.98r
Encoding settings : -m s -V 4 -q 2 -lowpass 17 -b 128

Audio #2
ID : 2
Format : MPEG Audio
Format version : Version 1
Format profile : Layer 3
Codec ID : 55
Codec ID/Hint : MP3
Duration : 44mn 3s
Bit rate mode : Constant
Bit rate : 128 Kbps
Channel(s) : 2 channels
Sampling rate : 48.0 KHz
Stream size : 40.3 MiB (9%)
Alignment : Aligned on interleaves
Interleave, duration : 42 ms (1.00 video frame)
Interleave, preload duration : 504 ms
Writing library : LAME3.98r
Encoding settings : -m s -V 4 -q 2 -lowpass 17 -b 128


Пан Американ скачать торрент


pb.wtf



Скачать Пан Американ через торрент http://pic.kartinco.top/images/3/wzp9hp1trl.jpg Скачать фильм Пан Американ через торрент бесплантно в хорошем качестве Описание: Действие драматического сериала Pan Am переносит нас в 1963 г., в век высоких скоростей. Новый роскошный авиалайнер отправляется ... 10 10 3
Info! Золотая раздача, скачанное не засчитывается.
Торрент: Зарегистрирован [2013-09-05 05:50] · скачан: 5 раз
Статус: √ проверено
Размер: 6.17 GB
Как cкачать? Как скачать Пан Американ через торрент | qTorrent

28-11-2019 20:33  

Отключить всю рекламу на сайте

    Дорогой пользователь! Огромная просьба, поблагодарите релизера, оцените раздачу и оставьте свои комментарий, если Вы скачали Пан Американ через торрент бесплатно! Внесите свою лепту в развитие PiratBit!
    Комментировать посты могут только пользователи прошедшие не сложную регистрацию
    Показать сообщения:    

    Пан Американ через торрент
    Скачать бесплатно Пан Американ
    Пан Американ скачать торрент
    Пан Американ смотреть онлайн
    Cкачать фильм Пан Американ бесплатно
    Пан Американ скачать торрент в хорошем качестве
    Пан Американ смотреть онлайн бесплатно в хорошем качестве


    Вы не можете начинать темы
    Вы не можете отвечать на сообщения
    Вы не можете редактировать свои сообщения
    Вы не можете удалять свои сообщения
    Вы не можете голосовать в опросах
    Вы не можете прикреплять файлы к сообщениям
    Вы можете скачивать файлы