Ссылка на приватное зеркало нашего сайта всего за 1$. Внимание количество ограничено!!!

2 сезон

iTunes

1 сезон

1

2 сезон

2 сезон

iTunes

1 сезон

RePack

30

Ultimate

ВАЖНО

ИГРА 18+

pack

RePack

MK11
pack

Забери бонус

RePack

jed

!!Акция!!

Alien_Rage

RePack

fifa19

RePack

Assassins Creed: Odyssey

RePack

NEED FOR SPEED™ PAYBACK

4 сезон

9 сезон

Бесстыжие 9 сезон

Все сериалы

все сериалы на PB.wtf

RePack

FAR CRY 5
  

Тушите свет / Lights Out / Сезон: 1 / Серии: 1-13 (13) (Norberto Barba, Clark Johnson) [2011, Драма, Спорт, WEB-DLRip] DVO (M7G) pb.wtf

Тушите свет через торрент pb.wtf

Размер: 5.63 GB | Добавлен: 7 лет 2 мес. назад | Торрент скачан:19 раз
Скачать  

05-09-2013 06:26 Тушите свет Скачать торрент  


Тушите свет / Lights Out
Год выпуска: 2011
Страна: США
Жанр: Драма, Спорт,
Продолжительность: ~ 00:43:07 серия
Перевод: Любительский двухголосый закадровый (M7G)

Режиссер: Норберто Барба, Жан Де Сегонзак



В ролях: Холт МакКэллани, Стейси Кич, Катрин МакКормак, Пабло Шрайбер, Мередит Хагнер, Райанн Шэйн, Рег Э. Кэти, Билли Браун, Лили Пилблад, Элизабет Марвел,

Описание: Боксер Патрик Лири уступает своей жене, соглашается на ее условия и навсегда уходит из большого спорта. Спустя пять лет, его материальное состояние неизбежно иссякает. Для того чтобы накормить свою семью, ему предстоит поступиться своим моральным принципам и кулаками зарабатывать на жизнь. И делать это так, чтобы не потерять семью.
Перевод и озвучание:

Качество: WEB-DLRip
Формат: AVI
Видео кодек: XviD
Аудио кодек: MP3
Видео: 704x400 (16:9), 23.976 fps, 1 003 Kbps
Аудио#1: 256 Kbps, 48.0 KHz, 2 ch (M7G)




General
Complete name : Lights.Out.S01E01.Pilot.M7G.avi
Format : AVI
Format/Info : Audio Video Interleave
File size : 391 MiB
Duration : 43mn 7s
Overall bit rate : 1 268 Kbps
Writing library : VirtualDub-MPEG2 build 24586/release

Video
ID : 0
Format : MPEG-4 Visual
Format profile : Advanced Simple@L5
Format settings, BVOP : Yes
Format settings, QPel : No
Format settings, GMC : No warppoints
Format settings, Matrix : Default (H.263)
Muxing mode : Packed bitstream
Codec ID : XVID
Codec ID/Hint : XviD
Duration : 43mn 7s
Bit rate : 1 003 Kbps
Width : 704 pixels
Height : 400 pixels
Display aspect ratio : 16:9
Frame rate : 23.976 fps
Color space : YUV
Chroma subsampling : 4:2:0
Bit depth : 8 bits
Scan type : Progressive
Bits/(Pixel*Frame) : 0.149
Stream size : 309 MiB (79%)
Writing library : XviD 1.2.1 (UTC 2008-12-04)

Audio
ID : 1
Format : MPEG Audio
Format version : Version 1
Format profile : Layer 3
Codec ID : 55
Codec ID/Hint : MP3
Duration : 43mn 7s
Bit rate mode : Constant
Bit rate : 256 Kbps
Channel(s) : 2 channels
Sampling rate : 48.0 KHz
Stream size : 79.0 MiB (20%)
Alignment : Aligned on interleaves
Interleave, duration : 42 ms (1.00 video frame)
Interleave, preload duration : 504 ms

pb.wtf



Скачать Тушите свет через торрент http://pic.kartinco.top/images/3/8fyg984t7u.jpg Скачать фильм Тушите свет через торрент бесплантно в хорошем качестве Описание: Боксер Патрик Лири уступает своей жене, соглашается на ее условия и навсегда уходит из большого спорта. Спустя пять лет, его ... 8.4 10 5
Info! Золотая раздача, скачанное не засчитывается.
Торрент: Зарегистрирован [2013-09-05 06:26] · скачан: 19 раз
Статус: √ проверено
Размер: 5.63 GB
Как cкачать? Как скачать Тушите свет через торрент | qTorrent

% Раздел Тема Автор DL S | L
Зарубежные сериалы [ 5.25 GB ] Тушите свет / Lights Out / Сезон: 1 / Серии: 1-13 [2011 Спорт WEB-DLRip] Stargate_Universe Скачать
1 | 0

28-11-2019 20:33  

Отключить всю рекламу на сайте

    Дорогой пользователь! Огромная просьба, поблагодарите релизера, оцените раздачу и оставьте свои комментарий, если Вы скачали Тушите свет через торрент бесплатно! Внесите свою лепту в развитие PiratBit!
    Комментировать посты могут только пользователи прошедшие не сложную регистрацию
    Показать сообщения:    

    Тушите свет через торрент
    Скачать бесплатно Тушите свет
    Тушите свет скачать торрент
    Тушите свет смотреть онлайн
    Cкачать фильм Тушите свет бесплатно
    Тушите свет скачать торрент в хорошем качестве
    Тушите свет смотреть онлайн бесплатно в хорошем качестве


    Вы не можете начинать темы
    Вы не можете отвечать на сообщения
    Вы не можете редактировать свои сообщения
    Вы не можете удалять свои сообщения
    Вы не можете голосовать в опросах
    Вы не можете прикреплять файлы к сообщениям
    Вы можете скачивать файлы