Ссылка на приватное зеркало нашего сайта всего за 1$. Внимание количество ограничено!!!

2 сезон

iTunes

1 сезон

1

iTunes

iTunes

iTunes

1 сезон

RePack

30

ИГРА 18+

pack

ВАЖНО

!!Акция!!

Alien_RageХит недели

RePack

MK11
pack

Забери бонус

RePack

jed

!!Акция!!

Alien_Rage

RePack

fifa19

RePack

Assassins Creed: Odyssey

RePack

NEED FOR SPEED™ PAYBACK

4 сезон

9 сезон

Бесстыжие 9 сезон

Все сериалы

все сериалы на PB.wtf

RePack

FAR CRY 5
  

Кровью и потом: Анаболики / Pain & Gain (Майкл Бэй / Michael Bay) [2013, США, криминал, комедия, триллер, BDRip 720p, Дубляж [лицензия] pb.wtf

Кровью и потом: Анаболики через торрент pb.wtf

Размер: 6.63 GB | Добавлен: 7 лет 1 мес. назад | Торрент скачан:720 раз
Скачать  

05-09-2013 21:18 Кровью и потом: Анаболики Скачать торрент  

Кровью и потом: Анаболики / Pain & Gain

«Мечтай по-крупному»

  • Год выпуска:2013
  • Страна:США
  • Жанр:криминал, комедия, триллер, боевик

  • Продолжительность: 02:09:36
  • Перевод:Профессиональный (полное дублирование) [лицензия]

  • Субтитры: Русские, Английские|отключаемые *.srt|
    • Режиссер:Майкл Бэй / Michael Bay
    • Сценарий: Кристофер Маркус / Christopher Markus, Стивен МакФили / Stephen McFeely, Пит Коллинз / Pete Collins
    • Продюсер: Майкл Бэй / Michael Bay, Йен Брайс / Ian Bryce, Дональд Де Лайн / Donald De Line, Мэттью Кохан / Matthew Cohan, Скотт Гарденауа / Scott Gardenhour

  • В ролях:Марк Уолберг (Daniel Lugo), Дуэйн Джонсон (Paul Doyle), Энтони Маки (Adrian Doorbal), Тони Шэлуб (Victor Kershaw), Эд Харрис (Ed DuBois), Роб Кордри (John Mese), Ребел Уилсон (Robin Peck), Бар Пали (Sorina Luminita), Кен Жонг (Johnny Wu), Майкл Рисполи (Frank Griga), Кейли Лефковитц (Krisztina Furton), Иоланта Кабау ван Касберген (Analee Calvera)
    • Описание:
      Однажды тренеру по фитнесу надоело ходить в трениках. Он решил круто изменить свою судьбу и разбогатеть. Нашел двух других незадачливых качков и предложил им план похищения своего клиента-миллионера. Но если в организме мышц больше, чем мозгов, то даже самый лучший план, подсмотренный в экшен-боевике, может не сработать...

  • Рейтинг
    kinopoisk.ru: 6.649 (19 305)
    imdb.com: 6.60 (49 590)
    MPAA: R - Лицам до 17 лет обязательно присутствие взрослого

    • Качество:BDRip 720p
    • Формат:MKV
    • Видео кодек: AVC
    • Аудио кодек:AC3
    • Видео: AVC, 1280x534 (2.40:1), 6043 kbps, 23,976 fps, 0,369 bpp
    • Аудио №1: русский / AC3 / 5.1 / 48 kHz / 640 kbps / 16 bit ||
      Аудио №2: английский / AC3 / 5.1 / 48 kHz / 640 kbps / 16 bit


    General
    Unique ID : 188722686714372174505205528881521817868 (0x8DFAAAD7A2C7835CA06F4328CF34F90C)
    Complete name : D:ТорентыKrovyu.I.Potom.Anaboliki.2013.DUAL.BDRip.720p.x264.AC3.-HQ-ViDEO.mkv
    Format : Matroska
    Format version : Version 2
    File size : 6.63 GiB
    Duration : 2h 9mn
    Overall bit rate : 7 321 Kbps
    Movie name : Pain & Gain (2013) - HQ-ViDEO
    Encoded date : UTC 2013-09-05 19:43:12
    Writing application : mkvmerge v6.3.0 ('You can't stop me!') built on Jun 28 2013 20:09:41
    Writing library : libebml v1.3.0 + libmatroska v1.4.0

    Video
    ID : 1
    Format : AVC
    Format/Info : Advanced Video Codec
    Format profile : High@L4.1
    Format settings, CABAC : Yes
    Format settings, ReFrames : 11 frames
    Codec ID : V_MPEG4/ISO/AVC
    Duration : 2h 9mn
    Bit rate : 6 043 Kbps
    Width : 1 280 pixels
    Height : 534 pixels
    Display aspect ratio : 2.40:1
    Frame rate : 23.976 fps
    Color space : YUV
    Chroma subsampling : 4:2:0
    Bit depth : 8 bits
    Scan type : Progressive
    Bits/(Pixel*Frame) : 0.369
    Stream size : 5.34 GiB (81%)
    Title : Vaippp @ 6038 Kbps
    Writing library : x264 core 135 r2345 f0c1c53
    Encoding settings : cabac=1 / ref=11 / deblock=1:-3:-3 / analyse=0x3:0x133 / me=esa / subme=11 / psy=1 / psy_rd=1.00:0.00 / mixed_ref=1 / me_range=24 / chroma_me=1 / trellis=2 / 8x8dct=1 / cqm=0 / deadzone=21,11 / fast_pskip=0 / chroma_qp_offset=-2 / threads=12 / lookahead_threads=2 / sliced_threads=0 / nr=0 / decimate=0 / interlaced=0 / bluray_compat=0 / constrained_intra=0 / bframes=8 / b_pyramid=2 / b_adapt=2 / b_bias=0 / direct=3 / weightb=1 / open_gop=0 / weightp=2 / keyint=240 / keyint_min=22 / scenecut=40 / intra_refresh=0 / rc_lookahead=60 / rc=2pass / mbtree=0 / bitrate=6043 / ratetol=1.0 / qcomp=0.65 / qpmin=0 / qpmax=69 / qpstep=4 / cplxblur=20.0 / qblur=0.5 / vbv_maxrate=62500 / vbv_bufsize=78125 / nal_hrd=none / ip_ratio=1.40 / pb_ratio=1.30 / aq=1:0.85
    Language : English
    Default : Yes
    Forced : No
    Color primaries : BT.709-5, BT.1361, IEC 61966-2-4, SMPTE RP177
    Transfer characteristics : BT.709-5, BT.1361
    Matrix coefficients : BT.709-5, BT.1361, IEC 61966-2-4 709, SMPTE RP177

    Audio #1
    ID : 2
    Format : AC-3
    Format/Info : Audio Coding 3
    Mode extension : CM (complete main)
    Codec ID : A_AC3
    Duration : 2h 9mn
    Bit rate mode : Constant
    Bit rate : 640 Kbps
    Channel(s) : 6 channels
    Channel positions : Front: L C R, Side: L R, LFE
    Sampling rate : 48.0 KHz
    Bit depth : 16 bits
    Compression mode : Lossy
    Stream size : 593 MiB (9%)
    Title : AC3 DD 5.1 @ 640 Kbps DUB - Blu-Ray US
    Language : Russian
    Default : Yes
    Forced : Yes

    Audio #2
    ID : 3
    Format : AC-3
    Format/Info : Audio Coding 3
    Mode extension : CM (complete main)
    Codec ID : A_AC3
    Duration : 2h 9mn
    Bit rate mode : Constant
    Bit rate : 640 Kbps
    Channel(s) : 6 channels
    Channel positions : Front: L C R, Side: L R, LFE
    Sampling rate : 48.0 KHz
    Bit depth : 16 bits
    Compression mode : Lossy
    Stream size : 593 MiB (9%)
    Title : AC3 DD 5.1 @ 640 Kbps Original - Blu-Ray US
    Language : English
    Default : No
    Forced : No

    Text #1
    ID : 4
    Format : UTF-8
    Codec ID : S_TEXT/UTF8
    Codec ID/Info : UTF-8 Plain Text
    Language : Russian
    Default : No
    Forced : No

    Text #2
    ID : 5
    Format : UTF-8
    Codec ID : S_TEXT/UTF8
    Codec ID/Info : UTF-8 Plain Text
    Language : English
    Default : No
    Forced : No

    Text #3
    ID : 6
    Format : UTF-8
    Codec ID : S_TEXT/UTF8
    Codec ID/Info : UTF-8 Plain Text
    Title : SDH
    Language : English
    Default : No
    Forced : No

    Menu
    00:00:00.000 : en:Chapter 01
    00:02:34.654 : en:Chapter 02
    00:09:33.990 : en:Chapter 03
    00:16:08.676 : en:Chapter 04
    00:22:05.657 : en:Chapter 05
    00:25:50.840 : en:Chapter 06
    00:32:45.505 : en:Chapter 07
    00:38:52.788 : en:Chapter 08
    00:46:19.651 : en:Chapter 09
    00:51:40.972 : en:Chapter 10
    00:58:11.738 : en:Chapter 11
    01:04:03.548 : en:Chapter 12
    01:10:32.311 : en:Chapter 13
    01:16:17.281 : en:Chapter 14
    01:21:20.542 : en:Chapter 15
    01:29:00.084 : en:Chapter 16
    01:37:06.028 : en:Chapter 17
    01:42:17.714 : en:Chapter 18
    01:49:10.460 : en:Chapter 19
    01:56:34.487 : en:Chapter 20
    02:01:42.295 : en:Chapter 21

    • Марк Уолберг рассказал, что его сыновья были в восторге, когда он набрал мышечную массу для своей роли, а его дочери это, наоборот, не понравилось.
    • Альберт Брукс рассматривался на роль в фильме, но подписание контракта не состоялось, и на его место пришел Джон Туртурро. В итоге Туртурро покинул проект из-за несогласованности расписаний съемок, и роль досталась Тони Шэлубу.
    • Майкл Бэй несколько раз откладывал работу над этим фильмом, отдавая предпочтение «Трансформерам». Он отметил, что хочет для разнообразия снять небольшой фильм со скромным бюджетом.
    • С бюджетом около 20 миллионов долларов этот фильм стал самым низкобюджетным проектом Майкла Бэя с момента выхода его дебютного фильма «Плохие парни» (1995). Бэю, Марку Уолбергу и Дуэйну Джонсону пришлось урезать зарплаты, чтобы не выйти за рамки бюджета.
    • Специально для своей роли культуриста в этом фильме Марк Уолберг увеличил свой вес до отметки в 96 килограмм.
    • Первый фильм Майкла Бэя с рейтингом R после выхода фильма «Плохие парни 2» (2003).
    • Во время съемок этого фильма Марк Уолберг занимался собственной линией бодибилдинг-продуктов. И, по его словам, он эффективно набрал мышечную массу, используя свои собственные добавки.
    • еще 4 факта
    • Действия фильма происходят в 1995-1996 годах, но полиция использует Ford Crown Victoria второго поколения, выпуск которого начался в 1998-м.
    • Автомобиль, на котором ездит герой Дуэйна Джонсона, - это Plymouth Prowler. Он начал выпускаться в 1997 году, то есть позже событий, описанных в фильме.
    • Когда священник передает напиток Дуэйну Джонсону (в стакане со льдом и пепси-колой), с края стакана падает долька лайма, а уже в следующем кадре, когда Дуэйн Джонсон собирается пить напиток, лайм на месте.

    © Оформление by Vetalpb.wtf



  • Скачать Кровью и потом: Анаболики через торрент http://i6.imageban.ru/out/2013/09/06/e94190bc586ed2794770350b8f50581c.png Скачать фильм Кровью и потом: Анаболики через торрент бесплантно в хорошем качестве Описание:Однажды тренеру по фитнесу надоело ходить в трениках. Он решил круто изменить свою судьбу и разбогатеть. Нашел двух других ... 9.3 10 12
    Info! Золотая раздача, скачанное не засчитывается.
    Торрент: Зарегистрирован [2013-09-05 21:18] · скачан: 720 раз
    Статус: √ проверено
    Размер: 6.63 GB
    Как cкачать? Как скачать Кровью и потом: Анаболики через торрент | qTorrent

    28-11-2019 20:33  

    Отключить всю рекламу на сайте

      Дорогой пользователь! Огромная просьба, поблагодарите релизера, оцените раздачу и оставьте свои комментарий, если Вы скачали Кровью и потом: Анаболики через торрент бесплатно! Внесите свою лепту в развитие PiratBit!
      Комментировать посты могут только пользователи прошедшие не сложную регистрацию
      Показать сообщения:    

      Кровью и потом: Анаболики через торрент
      Скачать бесплатно Кровью и потом: Анаболики
      Кровью и потом: Анаболики скачать торрент
      Кровью и потом: Анаболики смотреть онлайн
      Cкачать фильм Кровью и потом: Анаболики бесплатно
      Кровью и потом: Анаболики скачать торрент в хорошем качестве
      Кровью и потом: Анаболики смотреть онлайн бесплатно в хорошем качестве


      Вы не можете начинать темы
      Вы не можете отвечать на сообщения
      Вы не можете редактировать свои сообщения
      Вы не можете удалять свои сообщения
      Вы не можете голосовать в опросах
      Вы не можете прикреплять файлы к сообщениям
      Вы можете скачивать файлы