2 сезон

iTunes

MVO

1

2 сезон

iTunes

iTunes

1 сезон

RePack

30

Ultimate

ВАЖНО

ИГРА 18+

pack

RePack

MK11
pack

Легкие деньги

RePack

jed

RePack

fifa19

RePack

RDR2

RePack

NEED FOR SPEED™ PAYBACK

4 сезон

9 сезон

Бесстыжие 9 сезон

Все сериалы

все сериалы на PB.wtf

RePack

FAR CRY 5

Anonymous, доброе утро, мы не успеваем собрать деньги на оплату серверов за декабрь и январь, помогите нам пожалуйста в это трудное время. В качестве благодарности мы отключим Вам всю рекламу на сайте (укажите свой ник в строку Ваше имя)!

×
  
Magnet ссылка

Кровью и потом: Анаболики / Pain & Gain (Майкл Бэй / Michael Bay) [2013, США, криминал, комедия, триллер, HDRip, Дубляж [лицензия] pb.wtf

Кровью и потом: Анаболики через торрент pb.wtf

Размер: 785 MB | Добавлен: 7 лет 4 мес. назад | Торрент скачан:377 раз
Скачать  

06-09-2013 02:33 Кровью и потом: Анаболики Скачать торрент  

Кровью и потом: Анаболики / Pain & Gain

«Мечтай по-крупному»

  • Год выпуска:2013
  • Страна:США
  • Жанр:криминал, комедия, триллер, боевик

  • Продолжительность: 02:09:36
  • Перевод:Профессиональный (полное дублирование) [лицензия]

  • Субтитры: Нет
    • Режиссер:Майкл Бэй / Michael Bay
    • Сценарий: Кристофер Маркус / Christopher Markus, Стивен МакФили / Stephen McFeely, Пит Коллинз / Pete Collins
    • Продюсер: Майкл Бэй / Michael Bay, Йен Брайс / Ian Bryce, Дональд Де Лайн / Donald De Line, Мэттью Кохан / Matthew Cohan, Скотт Гарденауа / Scott Gardenhour

  • В ролях:Марк Уолберг (Daniel Lugo), Дуэйн Джонсон (Paul Doyle), Энтони Маки (Adrian Doorbal), Тони Шэлуб (Victor Kershaw), Эд Харрис (Ed DuBois), Роб Кордри (John Mese), Ребел Уилсон (Robin Peck), Бар Пали (Sorina Luminita), Кен Жонг (Johnny Wu), Майкл Рисполи (Frank Griga), Кейли Лефковитц (Krisztina Furton), Иоланта Кабау ван Касберген (Analee Calvera)
    • Описание:
      Однажды тренеру по фитнесу надоело ходить в трениках. Он решил круто изменить свою судьбу и разбогатеть. Нашел двух других незадачливых качков и предложил им план похищения своего клиента-миллионера. Но если в организме мышц больше, чем мозгов, то даже самый лучший план, подсмотренный в экшен-боевике, может не сработать...

  • Рейтинг
    kinopoisk.ru: 6.650 (19 336)
    imdb.com: 6.60 (49 590)
    MPAA: R - Лицам до 17 лет обязательно присутствие взрослого
    • Качество:HDRip
    • Формат:AVI
    • Видео кодек: XviD
    • Аудио кодек:MP3
    • Видео: XviD, 688x288 (2.40:1), 709 kbps, 23,976 fps, 0,149 bpp
    • Аудио: MP3 / 2.0 / 48 kHz / 128 kbps /


    General
    Complete name : D:ТорентыPain.and.Gain.2013_HDRip_dub_r5_[scarabey.org].avi
    Format : AVI
    Format/Info : Audio Video Interleave
    File size : 785 MiB
    Duration : 2h 9mn
    Overall bit rate : 846 Kbps
    Writing application : VirtualDubMod 1.5.10.2 (build 2540/release)
    Writing library : VirtualDubMod build 2540/release

    Video
    ID : 0
    Format : MPEG-4 Visual
    Format profile : Advanced Simple@L5
    Format settings, BVOP : 1
    Format settings, QPel : No
    Format settings, GMC : No warppoints
    Format settings, Matrix : Custom
    Codec ID : XVID
    Codec ID/Hint : XviD
    Duration : 2h 9mn
    Bit rate : 709 Kbps
    Width : 688 pixels
    Height : 288 pixels
    Display aspect ratio : 2.40:1
    Frame rate : 23.976 fps
    Color space : YUV
    Chroma subsampling : 4:2:0
    Bit depth : 8 bits
    Scan type : Progressive
    Compression mode : Lossy
    Bits/(Pixel*Frame) : 0.149
    Stream size : 657 MiB (84%)
    Writing library : XviD 1.2.1 (UTC 2008-12-04)

    Audio
    ID : 1
    Format : MPEG Audio
    Format version : Version 1
    Format profile : Layer 3
    Codec ID : 55
    Codec ID/Hint : MP3
    Duration : 2h 9mn
    Bit rate mode : Constant
    Bit rate : 128 Kbps
    Channel(s) : 2 channels
    Sampling rate : 48.0 KHz
    Compression mode : Lossy
    Stream size : 119 MiB (15%)
    Alignment : Aligned on interleaves
    Interleave, duration : 42 ms (1.00 video frame)
    Interleave, preload duration : 504 ms
    Writing library : LAME3.99r
    Encoding settings : -m s -V 4 -q 2 -lowpass 17 -b 128

    • Во время съемок этого фильма Марк Уолберг занимался собственной линией бодибилдинг-продуктов. И, по его словам, он эффективно набрал мышечную массу, используя свои собственные добавки.
    • Марк Уолберг рассказал, что его сыновья были в восторге, когда он набрал мышечную массу для своей роли, а его дочери это, наоборот, не понравилось.
    • С бюджетом около 20 миллионов долларов этот фильм стал самым низкобюджетным проектом Майкла Бэя с момента выхода его дебютного фильма «Плохие парни» (1995). Бэю, Марку Уолбергу и Дуэйну Джонсону пришлось урезать зарплаты, чтобы не выйти за рамки бюджета.
    • Майкл Бэй несколько раз откладывал работу над этим фильмом, отдавая предпочтение «Трансформерам». Он отметил, что хочет для разнообразия снять небольшой фильм со скромным бюджетом.
    • Альберт Брукс рассматривался на роль в фильме, но подписание контракта не состоялось, и на его место пришел Джон Туртурро. В итоге Туртурро покинул проект из-за несогласованности расписаний съемок, и роль досталась Тони Шэлубу.
    • Специально для своей роли культуриста в этом фильме Марк Уолберг увеличил свой вес до отметки в 96 килограмм.
    • Первый фильм Майкла Бэя с рейтингом R после выхода фильма «Плохие парни 2» (2003).
    • еще 4 факта
    • Действия фильма происходят в 1995-1996 годах, но полиция использует Ford Crown Victoria второго поколения, выпуск которого начался в 1998-м.
    • Автомобиль, на котором ездит герой Дуэйна Джонсона, - это Plymouth Prowler. Он начал выпускаться в 1997 году, то есть позже событий, описанных в фильме.
    • Когда священник передает напиток Дуэйну Джонсону (в стакане со льдом и пепси-колой), с края стакана падает долька лайма, а уже в следующем кадре, когда Дуэйн Джонсон собирается пить напиток, лайм на месте.

    © Оформление by Vetalpb.wtf



  • Скачать Кровью и потом: Анаболики через торрент http://i2.imageban.ru/out/2013/09/06/f1d9290f23b1200c946ff0987a033347.png Скачать фильм Кровью и потом: Анаболики через торрент бесплантно в хорошем качестве Описание:Однажды тренеру по фитнесу надоело ходить в трениках. Он решил круто изменить свою судьбу и разбогатеть. Нашел двух других ... 10 10 12
    Info! Золотая раздача, скачанное не засчитывается.
    Торрент: Зарегистрирован [2013-09-06 02:33] · скачан: 377 раз
    Статус: √ проверено
    Размер: 785 MB
    Как cкачать? Как скачать Кровью и потом: Анаболики через торрент | UTorrent

    28-11-2019 20:33  

    Отключить всю рекламу на сайте

      Дорогой пользователь! Огромная просьба, поблагодарите релизера, оцените раздачу и оставьте свои комментарий, если Вы скачали Кровью и потом: Анаболики через торрент бесплатно! Внесите свою лепту в развитие PiratBit!
      Комментировать посты могут только пользователи прошедшие не сложную регистрацию
      Показать сообщения:    

      Кровью и потом: Анаболики через торрент
      Скачать бесплатно Кровью и потом: Анаболики
      Кровью и потом: Анаболики скачать торрент
      Кровью и потом: Анаболики смотреть онлайн
      Cкачать фильм Кровью и потом: Анаболики бесплатно
      Кровью и потом: Анаболики скачать торрент в хорошем качестве
      Кровью и потом: Анаболики смотреть онлайн бесплатно в хорошем качестве


      Вы не можете начинать темы
      Вы не можете отвечать на сообщения
      Вы не можете редактировать свои сообщения
      Вы не можете удалять свои сообщения
      Вы не можете голосовать в опросах
      Вы не можете прикреплять файлы к сообщениям
      Вы можете скачивать файлы