Ссылка на приватное зеркало нашего сайта всего за 1$. Внимание количество ограничено!!!

2 сезон

iTunes

1 сезон

1

iTunes

iTunes

iTunes

1 сезон

RePack

30

ИГРА 18+

pack

ВАЖНО

!!Акция!!

Alien_RageХит недели

RePack

MK11
pack

Забери бонус

RePack

jed

!!Акция!!

Alien_Rage

RePack

fifa19

RePack

Assassins Creed: Odyssey

RePack

NEED FOR SPEED™ PAYBACK

4 сезон

9 сезон

Бесстыжие 9 сезон

Все сериалы

все сериалы на PB.wtf

RePack

FAR CRY 5
  

Цианид / Cyanure (Северин Корнамусаз / Séverine Cornamusaz) [2013, Канада, Швейцария, Драма, DVDRip] VO + Original Fre pb.wtf

Цианид через торрент pb.wtf

Размер: 1.36 GB | Добавлен: 7 лет 1 мес. назад | Торрент скачан:130 раз
Скачать  

06-09-2013 02:50 Цианид Скачать торрент  

Цианид / Cyanure


  • Год выпуска:2013
  • Страна:Канада, Швейцария
  • Жанр:драма

  • Продолжительность: 01:48:40
  • Перевод:Любительский (одноголосый)

  • Субтитры: Нет
    • Режиссер:Северин Корнамусаз / Séverine Cornamusaz
    • Сценарий: Марсель Больё / Marcel Beaulieu, Северин Корнамусаз / Séverine Cornamusaz
    • Продюсер: Ксавьер Грин / Xavier Grin, Пьер Ивен / Pierre Even, Мари-Клод Пулен / Marie-Claude Poulin

  • В ролях:Etzlinger Alexandre (Achille), Рой Дюпюи (Joe), Сабина Тимотео (Pénélope), Кристоф Серме (Alexis), Ludivine Geschworner (Mathilde), Тьерри Жоран (Joe's boss), Изабель Кэйллат (La policière), Серж Мюзи (Le policier de nuit), Янник Гиро (Le boucher, в титрах не указан)
    • Описание:
      Тринадцатилетний Ахилл ожидает с надеждой выхода из тюрьмы своего неизвестного и нафантазированного отца Джо.
      Его мечта жить втроём, как настоящая семья, будет серьезно подрываться уставшей от ожидания матерью и отцом, которому сложно адаптироваться и который стал безответственным за долгие годы заключения. Сможет ли он сдержать данное сыну слово теперь всегда жить вместе и не расставаться?

    • Качество:DVDRip
    • Формат:AVI
    • Видео кодек: XviD
    • Аудио кодек:MP3
    • Видео: XviD, 720x304 (2.35:1), 1462 kbps, 23,976 fps, 0,279 bpp
    • Аудио №1: MP3 / 2.0 / 48 kHz / 192 kbps /Русский
      Аудио №2: MP3 / 2.0 / 48 kHz / 128 kbps / фрацузский


    General
    Complete name : D:ТорентыCyanure.2013.DVDRip.avi
    Format : AVI
    Format/Info : Audio Video Interleave
    File size : 1.36 GiB
    Duration : 1h 48mn
    Overall bit rate : 1 796 Kbps
    Writing application : VirtualDubModRus 1.5.10.2 (build 2542/release)
    Writing library : VirtualDubMod build 2542/release

    Video
    ID : 0
    Format : MPEG-4 Visual
    Format profile : Advanced Simple@L5
    Format settings, BVOP : 2
    Format settings, QPel : No
    Format settings, GMC : No warppoints
    Format settings, Matrix : Custom
    Codec ID : XVID
    Codec ID/Hint : XviD
    Duration : 1h 48mn
    Bit rate : 1 462 Kbps
    Width : 720 pixels
    Height : 304 pixels
    Display aspect ratio : 2.35:1
    Frame rate : 23.976 fps
    Color space : YUV
    Chroma subsampling : 4:2:0
    Bit depth : 8 bits
    Scan type : Progressive
    Compression mode : Lossy
    Bits/(Pixel*Frame) : 0.279
    Stream size : 1.11 GiB (81%)
    Writing library : XviD 65

    Audio #1
    ID : 1
    Format : MPEG Audio
    Format version : Version 1
    Format profile : Layer 3
    Mode : Joint stereo
    Mode extension : MS Stereo
    Codec ID : 55
    Codec ID/Hint : MP3
    Duration : 1h 48mn
    Bit rate mode : Constant
    Bit rate : 192 Kbps
    Channel(s) : 2 channels
    Sampling rate : 48.0 KHz
    Compression mode : Lossy
    Stream size : 149 MiB (11%)
    Alignment : Split accross interleaves
    Interleave, duration : 42 ms (1.00 video frame)
    Interleave, preload duration : 500 ms
    Writing library : LAME3.99.5

    Audio #2
    ID : 2
    Format : MPEG Audio
    Format version : Version 1
    Format profile : Layer 3
    Mode : Joint stereo
    Codec ID : 55
    Codec ID/Hint : MP3
    Duration : 1h 48mn
    Bit rate mode : Constant
    Bit rate : 128 Kbps
    Channel(s) : 2 channels
    Sampling rate : 48.0 KHz
    Compression mode : Lossy
    Stream size : 99.5 MiB (7%)
    Alignment : Aligned on interleaves
    Interleave, duration : 42 ms (1.00 video frame)
    Interleave, preload duration : 504 ms


    © Оформление by Vetalpb.wtf



  • Скачать Цианид через торрент http://i2.imageban.ru/out/2013/09/06/7e2bf44625e1a52fc95a05cdd2925b51.jpg Скачать фильм Цианид через торрент бесплантно в хорошем качестве Описание:Тринадцатилетний Ахилл ожидает с надеждой выхода из тюрьмы своего неизвестного и нафантазированного отца Джо. Его мечта жить ... 9.4 10 8
    Info! Золотая раздача, скачанное не засчитывается.
    Торрент: Зарегистрирован [2013-09-06 02:52] · скачан: 130 раз
    Статус: √ проверено
    Размер: 1.36 GB
    Как cкачать? Как скачать Цианид через торрент | qTorrent

    28-11-2019 20:33  

    Отключить всю рекламу на сайте

    06-09-2013 22:57 Цианид Скачать торрент  

    Хороший фильм...Есть над чем задуматься...pb.wtf



      Дорогой пользователь! Огромная просьба, поблагодарите релизера, оцените раздачу и оставьте свои комментарий, если Вы скачали Цианид через торрент бесплатно! Внесите свою лепту в развитие PiratBit!
      Комментировать посты могут только пользователи прошедшие не сложную регистрацию
      Показать сообщения:    

      Цианид через торрент
      Скачать бесплатно Цианид
      Цианид скачать торрент
      Цианид смотреть онлайн
      Cкачать фильм Цианид бесплатно
      Цианид скачать торрент в хорошем качестве
      Цианид смотреть онлайн бесплатно в хорошем качестве


      Вы не можете начинать темы
      Вы не можете отвечать на сообщения
      Вы не можете редактировать свои сообщения
      Вы не можете удалять свои сообщения
      Вы не можете голосовать в опросах
      Вы не можете прикреплять файлы к сообщениям
      Вы можете скачивать файлы