Ссылка на приватное зеркало нашего сайта всего за 1$. Внимание количество ограничено!!!

2 сезон

iTunes

1 сезон

1

2 сезон

2 сезон

iTunes

1 сезон

RePack

30

Ultimate

ВАЖНО

ИГРА 18+

pack

RePack

MK11
pack

Забери бонус

RePack

jed

!!Акция!!

Alien_Rage

RePack

fifa19

RePack

Assassins Creed: Odyssey

RePack

NEED FOR SPEED™ PAYBACK

4 сезон

9 сезон

Бесстыжие 9 сезон

Все сериалы

все сериалы на PB.wtf

RePack

FAR CRY 5
  

Тот, кто убивает / Серии: 10 из 10 + Тень прошлого (Финал) / Den som dræber - Fortidens skygge (Биргер Ларсен, Каспер Барфоэд, Ниельс Нёрлёв Хансен) [2011 г., боевик, триллер, криминал, BDRip]MVO, Original Dan pb.wtf

Тот, кто убивает через торрент pb.wtf

Размер: 6.75 GB | Добавлен: 7 лет 2 мес. назад | Торрент скачан:75 раз
Скачать  

06-09-2013 05:33 Тот, кто убивает Скачать торрент  

Тот, кто убивает (сериал)+Тень прошлого (Финал) / Den som dræber - Fortidens skygge
Год выпуска: 2011
Страна: Дания
Жанр: боевик, триллер, криминал,
Продолжительность: ~00:44:00 серия + 01:32:05 финал
Перевод: Профессиональный (многоголосый, закадровый)

Режиссер: Биргер Ларсен Каспер Барфоэд Ниельс Нёрлёв Хансен

Бюджет: DKK 42 500 000



В ролях: Лаура Бах, Якоб Седергрен, Ларс Миккельсен, Лерке Винтер Андерсен, Фредерик Мельдаль Нёргор, Ибен Дорнер Эстергорд, Бенжамин Брюэль, Карстен Бьорнлунн, Давид Денсик, Ульрих Томсен,

Описание: В центре сериала опытный следователь Катрин Рис Йенсен, которая вот уже много лет руководит расследованиями уголовных преступлений в столице Дании. В детстве пережив насилие со стороны отчима, она ищет насильников, маньяков и убийц, жертвуя собой и своей личной жизнью. В ее расследованиях ей помогает Стиг Мёльбек, метящий на место Катрин Рис, а также психолог Томас Шэффер, имеющий в своем прошлом темные страницы. Не раз он примет рискованное решение, которое может привести к тяжелым последствиям.
Фильм "Тень прошлого", завершающий сериал Тот, кто убивает. Томас Шеффер полицейский-психолог, несколько лет назад допустивший досадную ошибку, не заметив в кровавых рисунках, солдата воевавшего в Ираке, страшную психическую болезнь. Со временем болезнь прогрессирует и бывший солдат превращается в маньяка-убийцу гуляющего на свободе, осуществляя в реале то, что он когда-то рисовал на своих жутких картинках. Томас еще не знает, какими последствиями обернется его оплошность… А тем временем начинается охота на маньяка, но не так все просто как кажется…


Релиз подготовлен:
Автор перевода: Янина Галицкая
Озвучка: Татьяна Оболевич, Артемий Мирон и Акмал Гурезов.
Монтаж: Павел Дежин
[img]http://pic.kartinco.top/images/3/yw4b4wqdio.jpg [/img] [img]http://pic.kartinco.top/images/3/og9prf376v.jpg [/img]

Качество: BDRip
Формат: MPEG-4
Видео кодек: AVC
Аудио кодек: AAC LC
Видео:Финал 720x400 (16:9), 25.000 fps, 1 536 Kbps
Видео:Сериал 720x400 (16:9), 25.000 fps, AVC, 1 536 Kbps
Аудио#1: Финал-Rus:AAC LC, 192 Kbps, 48.0 KHz, 2 ch (BaibaKo)
Аудио#2: Финал-Dan:AAC LC, 128 Kbps, 48.0 KHz, 2 ch
Аудио#3: Сериал-Rus:AAC LC, 192 Kbps, 48.0 KHz, 2 ch (BaibaKo)
Аудио#4: Сериал-Dan:AAC LC, 192 Kbps, 48.0 KHz, 2 ch




General
Complete name : Den.som.draeber.Fortidens.Skygge(Final.Film).BDRip.x264.Rus.Dan.BaibaKo.mp4
Format : MPEG-4
Format profile : Base Media
Codec ID : isom
File size : 1.19 GiB
Duration : 1h 32mn
Overall bit rate : 1 857 Kbps
Encoded date : UTC 2013-07-08 23:00:57
Tagged date : UTC 2013-07-08 23:00:57

Video
ID : 1
Format : AVC
Format/Info : Advanced Video Codec
Format profile : Baseline@L3.0
Format settings, CABAC : No
Format settings, ReFrames : 3 frames
Codec ID : avc1
Codec ID/Info : Advanced Video Coding
Duration : 1h 31mn
Bit rate mode : Variable
Bit rate : 1 536 Kbps
Maximum bit rate : 12.4 Mbps
Width : 720 pixels
Height : 400 pixels
Display aspect ratio : 16:9
Frame rate mode : Constant
Frame rate : 25.000 fps
Original frame rate : 50.000 fps
Color space : YUV
Chroma subsampling : 4:2:0
Bit depth : 8 bits
Scan type : Progressive
Bits/(Pixel*Frame) : 0.213
Stream size : 1 010 MiB (83%)
Title : fis-fs 720p bluray
Writing library : x264 core 129 r2245 bc13772
Encoding settings : cabac=0 / ref=3 / deblock=1:0:0 / analyse=0x1:0x111 / me=hex / subme=7 / psy=1 / psy_rd=1.00:0.00 / mixed_ref=1 / me_range=16 / chroma_me=1 / trellis=1 / 8x8dct=0 / cqm=0 / deadzone=21,11 / fast_pskip=1 / chroma_qp_offset=-2 / threads=6 / lookahead_threads=1 / sliced_threads=0 / nr=0 / decimate=1 / interlaced=0 / bluray_compat=0 / constrained_intra=0 / bframes=0 / weightp=0 / keyint=250 / keyint_min=25 / scenecut=40 / intra_refresh=0 / rc_lookahead=40 / rc=2pass / mbtree=1 / bitrate=1536 / ratetol=1.0 / qcomp=0.60 / qpmin=0 / qpmax=69 / qpstep=4 / cplxblur=20.0 / qblur=0.5 / vbv_maxrate=10000 / vbv_bufsize=10000 / nal_hrd=vbr / ip_ratio=1.40 / aq=1:1.00
Encoded date : UTC 2013-07-08 16:05:13
Tagged date : UTC 2013-07-08 23:08:14

Audio #1
ID : 2
Format : AAC
Format/Info : Advanced Audio Codec
Format version : Version 4
Format profile : LC
Format settings, SBR : No
Codec ID : 40
Duration : 1h 32mn
Bit rate mode : Variable
Bit rate : 192 Kbps
Maximum bit rate : 204 Kbps
Channel(s) : 2 channels
Channel positions : Front: L R
Sampling rate : 48.0 KHz
Stream size : 126 MiB (10%)
Language : Russian
Encoded date : UTC 2013-07-08 22:55:09
Tagged date : UTC 2013-07-08 23:08:14

Audio #2
ID : 3
Format : AAC
Format/Info : Advanced Audio Codec
Format version : Version 4
Format profile : LC
Format settings, SBR : No
Codec ID : 40
Duration : 1h 31mn
Bit rate mode : Variable
Bit rate : 128 Kbps
Maximum bit rate : 135 Kbps
Channel(s) : 2 channels
Channel positions : Front: L R
Sampling rate : 48.0 KHz
Stream size : 84.2 MiB (7%)
Title : ?Xz
Language : Danish
Encoded date : UTC 2013-07-08 16:06:17
Tagged date : UTC 2013-07-08 23:08:14


General
Complete name : Den.som.draeber.s01e01-02.BDRip.x264.Rus.Dan.BaibaKo.mp4
Format : MPEG-4
Format profile : Base Media
Codec ID : isom
File size : 1.17 GiB
Duration : 1h 26mn
Overall bit rate : 1 922 Kbps
Encoded date : UTC 2013-05-17 23:40:44
Tagged date : UTC 2013-05-17 23:40:44

Video
ID : 1
Format : AVC
Format/Info : Advanced Video Codec
Format profile : Baseline@L3.0
Format settings, CABAC : No
Format settings, ReFrames : 3 frames
Codec ID : avc1
Codec ID/Info : Advanced Video Coding
Duration : 1h 26mn
Bit rate mode : Variable
Bit rate : 1 536 Kbps
Maximum bit rate : 8 569 Kbps
Width : 720 pixels
Height : 400 pixels
Display aspect ratio : 16:9
Frame rate mode : Constant
Frame rate : 25.000 fps
Original frame rate : 50.000 fps
Color space : YUV
Chroma subsampling : 4:2:0
Bit depth : 8 bits
Scan type : Progressive
Bits/(Pixel*Frame) : 0.213
Stream size : 954 MiB (80%)
Title : Den som draeber 1x01-02 2011 720p BluRay x264-f79
Writing library : x264 core 129 r2245 bc13772
Encoding settings : cabac=0 / ref=3 / deblock=1:0:0 / analyse=0x1:0x111 / me=hex / subme=7 / psy=1 / psy_rd=1.00:0.00 / mixed_ref=1 / me_range=16 / chroma_me=1 / trellis=1 / 8x8dct=0 / cqm=0 / deadzone=21,11 / fast_pskip=1 / chroma_qp_offset=-2 / threads=6 / lookahead_threads=1 / sliced_threads=0 / nr=0 / decimate=1 / interlaced=0 / bluray_compat=0 / constrained_intra=0 / bframes=0 / weightp=0 / keyint=250 / keyint_min=25 / scenecut=40 / intra_refresh=0 / rc_lookahead=40 / rc=2pass / mbtree=1 / bitrate=1536 / ratetol=1.0 / qcomp=0.60 / qpmin=0 / qpmax=69 / qpstep=4 / cplxblur=20.0 / qblur=0.5 / vbv_maxrate=10000 / vbv_bufsize=10000 / nal_hrd=vbr / ip_ratio=1.40 / aq=1:1.00
Encoded date : UTC 2013-05-16 07:13:13
Tagged date : UTC 2013-05-17 23:45:37

Audio #1
ID : 2
Format : AAC
Format/Info : Advanced Audio Codec
Format version : Version 4
Format profile : LC
Format settings, SBR : No
Codec ID : 40
Duration : 1h 26mn
Bit rate mode : Variable
Bit rate : 192 Kbps
Maximum bit rate : 200 Kbps
Channel(s) : 2 channels
Channel positions : Front: L R
Sampling rate : 48.0 KHz
Stream size : 119 MiB (10%)
Language : Russian
Encoded date : UTC 2013-05-17 23:26:25
Tagged date : UTC 2013-05-17 23:45:37

Audio #2
ID : 3
Format : AAC
Format/Info : Advanced Audio Codec
Format version : Version 4
Format profile : LC
Format settings, SBR : No
Codec ID : 40
Duration : 1h 26mn
Bit rate mode : Variable
Bit rate : 192 Kbps
Maximum bit rate : 202 Kbps
Channel(s) : 2 channels
Channel positions : Front: L R
Sampling rate : 48.0 KHz
Stream size : 119 MiB (10%)
Language : Danish
Encoded date : UTC 2013-05-17 23:33:39
Tagged date : UTC 2013-05-17 23:45:37


Тот, кто убивает (сериал),Тень прошлого скачать торрент


pb.wtf



Скачать Тот, кто убивает через торрент http://pic.kartinco.top/images/3/aygcthau4q.jpg Скачать фильм Тот, кто убивает через торрент бесплантно в хорошем качестве Описание: В центре сериала опытный следователь Катрин Рис Йенсен, которая вот уже много лет руководит расследованиями уголовных ... 9.6 10 8
Info! Золотая раздача, скачанное не засчитывается.
Торрент: Зарегистрирован [2013-09-06 05:33] · скачан: 75 раз
Статус: √ проверено
Размер: 6.75 GB
Как cкачать? Как скачать Тот, кто убивает через торрент | qTorrent

% Раздел Тема Автор DL S | L
Зарубежные сериалы [ 21.95 GB ] Тот кто убивает / Серии: 10 из 10 + Тень прошлого / Den som dræber - Fortidens skygge [2011 BDRip 720p]MVO Original Dan Assasinca Скачать
1 | 0

28-11-2019 20:33  

Отключить всю рекламу на сайте

    Дорогой пользователь! Огромная просьба, поблагодарите релизера, оцените раздачу и оставьте свои комментарий, если Вы скачали Тот, кто убивает через торрент бесплатно! Внесите свою лепту в развитие PiratBit!
    Комментировать посты могут только пользователи прошедшие не сложную регистрацию
    Показать сообщения:    

    Тот, кто убивает через торрент
    Скачать бесплатно Тот, кто убивает
    Тот, кто убивает скачать торрент
    Тот, кто убивает смотреть онлайн
    Cкачать фильм Тот, кто убивает бесплатно
    Тот, кто убивает скачать торрент в хорошем качестве
    Тот, кто убивает смотреть онлайн бесплатно в хорошем качестве


    Вы не можете начинать темы
    Вы не можете отвечать на сообщения
    Вы не можете редактировать свои сообщения
    Вы не можете удалять свои сообщения
    Вы не можете голосовать в опросах
    Вы не можете прикреплять файлы к сообщениям
    Вы можете скачивать файлы