2 сезон

iTunes

1 сезон

1

iTunes

iTunes

iTunes

1 сезон

RePack

30

ИГРА 18+

pack

ВАЖНО

!!Акция!!

Alien_RageХит недели

RePack

MK11
pack

Забери бонус

RePack

jed

!!Акция!!

Alien_Rage

RePack

fifa19

RePack

Assassins Creed: Odyssey

RePack

NEED FOR SPEED™ PAYBACK

4 сезон

9 сезон

Бесстыжие 9 сезон

Все сериалы

все сериалы на PB.wtf

RePack

FAR CRY 5
  

Блэйд 3: Троица / Blade: Trinity (Дэвид С. Гойер) [2004 г., ужасы, фэнтези, боевик, триллер, приключения, BDRip 1080p, Дубляж + Оригинал] pb.wtf

Блэйд 3: Троица через торрент pb.wtf

Размер: 7.75 GB | Добавлен: 7 лет 1 мес. назад | Торрент скачан:84 раза
Скачать  

06-09-2013 15:43 Блэйд 3: Троица Скачать торрент  

Блэйд 3: Троица / Blade: Trinity
Год выпуска: 2004
Страна: США
Жанр: ужасы, фэнтези, боевик, триллер, приключения,
Продолжительность: 01:52:56
Перевод: Дубляж + Оригинал
Субтитры: Русские, Английские
Режиссер: Дэвид С. Гойер

В ролях: Уэсли Снайпс, Крис Кристофферсон, Доминик Пёрселл, Джессика Бил, Райан Рейнольдс, Паркер Поузи, Марк Берри, Джон Майкл Хиггинс, Каллум Кит Ренни, Пол Левески,

Описание: Фатальные события могут привести к захвату власти в мире вампирами. Блэйд — единственный, кто может предотвратить страшные перемены и воспрепятствовать превращению мира в «Планету вампиров».

Стремясь помешать Блэйду в реализации его плана, верхушка вампиров во главе с Даникой Талос натравливают на него людей. Полиция начинает охоту на того, кого теперь все считают жутким монстром…

Качество: BDRip 1080p
Формат: MKV
Видео кодек: H.264
Аудио кодек: AC3
Аудио#1: (1920x816) , 23.976 fps, 8810 kbps
Аудио#2: AC-3, 6 ch, 48kHz, 384 kbps (Rus)
Аудио#3: AC-3, 6 ch, 48kHz, 640 kbps (Eng)

Общее
Уникальный идентификатор : 221145250929031579107267450794346799064 (0xA65F06AD54CD5AA6856FF6BAF99BDFD8)
Полное имя : Blade.Trinity.2004.BDRip.1080p.Rus.Eng.mkv
Формат : Matroska
Версия формата : Version 2
Размер файла : 7,75 Гбайт
Продолжительность : 1 ч. 52 м.
Общий поток : 9829 Кбит/сек
Название фильма : Блэйд 3: Троица / Blade: Trinity (2004)
Дата кодирования : UTC 2013-02-18 12:31:35
Программа кодирования : mkvmerge v5.8.0 ('No Sleep / Pillow') built on Sep 2 2012 15:37:04
Библиотека кодирования : libebml v1.2.3 + libmatroska v1.3.0

Видео
Идентификатор : 1
Формат : AVC
Формат/Информация : Advanced Video Codec
Профиль формата : High@L4.1
Параметр CABAC формата : Да
Параметр ReFrames формата : 5 кадров
Идентификатор кодека : V_MPEG4/ISO/AVC
Продолжительность : 1 ч. 52 м.
Битрейт : 8810 Кбит/сек
Ширина : 1920 пикселей
Высота : 816 пикселей
Соотношение сторон : 2,35:1
Частота кадров : 23,976 кадра/сек
Цветовое пространство : YUV
Субдискретизация насыщенности : 4:2:0
Битовая глубина : 8 бит
Тип развёртки : Прогрессивная
Бит/(Пиксели*Кадры) : 0.235
Размер потока : 6,79 Гбайт (88%)
Заголовок : Release by AlexKa
Библиотека кодирования : x264 core 129 r2245 bc13772
Настройки программы : cabac=1 / ref=5 / deblock=1:-3:-3 / analyse=0x3:0x133 / me=umh / subme=11 / psy=1 / psy_rd=1.00:0.00 / mixed_ref=1 / me_range=32 / chroma_me=1 / trellis=2 / 8x8dct=1 / cqm=0 / deadzone=21,11 / fast_pskip=0 / chroma_qp_offset=-2 / threads=12 / lookahead_threads=2 / sliced_threads=0 / nr=0 / decimate=0 / interlaced=0 / bluray_compat=0 / constrained_intra=0 / bframes=3 / b_pyramid=2 / b_adapt=2 / b_bias=0 / direct=3 / weightb=1 / open_gop=0 / weightp=2 / keyint=240 / keyint_min=23 / scenecut=40 / intra_refresh=0 / rc=2pass / mbtree=0 / bitrate=8810 / ratetol=1.0 / qcomp=0.60 / qpmin=0 / qpmax=69 / qpstep=4 / cplxblur=20.0 / qblur=0.5 / ip_ratio=1.40 / pb_ratio=1.30 / aq=1:0.80
Язык : English

Аудио #1
Идентификатор : 2
Формат : AC-3
Формат/Информация : Audio Coding 3
Расширение режима : CM (complete main)
Идентификатор кодека : A_AC3
Продолжительность : 1 ч. 52 м.
Вид битрейта : Постоянный
Битрейт : 384 Кбит/сек
Каналы : 6 каналов
Расположение каналов : Front: L C R, Side: L R, LFE
Частота : 48,0 КГц
Битовая глубина : 16 бит
Метод сжатия : С потерями
Размер потока : 310 Мбайт (4%)
Заголовок : Rus
Язык : Russian

Аудио #2
Идентификатор : 3
Формат : AC-3
Формат/Информация : Audio Coding 3
Расширение режима : CM (complete main)
Идентификатор кодека : A_AC3
Продолжительность : 1 ч. 52 м.
Вид битрейта : Постоянный
Битрейт : 640 Кбит/сек
Каналы : 6 каналов
Расположение каналов : Front: L C R, Side: L R, LFE
Частота : 48,0 КГц
Битовая глубина : 16 бит
Метод сжатия : С потерями
Размер потока : 517 Мбайт (7%)
Заголовок : Eng
Язык : English

Текст #1
Идентификатор : 4
Формат : UTF-8
Идентификатор кодека : S_TEXT/UTF8
Идентификатор кодека/Информация : UTF-8 Plain Text
Заголовок : Rus
Язык : Russian

Текст #2
Идентификатор : 5
Формат : UTF-8
Идентификатор кодека : S_TEXT/UTF8
Идентификатор кодека/Информация : UTF-8 Plain Text
Заголовок : Eng
Язык : English

Меню
00:00:00.000 : :Chapter 01
00:10:27.292 : :Chapter 02
00:21:05.513 : :Chapter 03
00:30:43.675 : :Chapter 04
00:43:46.290 : :Chapter 05
00:49:15.202 : :Chapter 06
00:59:46.791 : :Chapter 07
01:13:27.236 : :Chapter 08
01:21:36.515 : :Chapter 09
01:32:20.576 : :Chapter 10
01:40:22.266 : :Chapter 11
01:44:26.218 : :Chapter 12
01:52:54.851 : :Chapter 13

pb.wtf



Скачать Блэйд 3: Троица через торрент http://pic.kartinco.top/images/3/jfv91gw3xn.jpg Скачать фильм Блэйд 3: Троица через торрент бесплантно в хорошем качестве Описание: Фатальные события могут привести к захвату власти в мире вампирами. Блэйд — единственный, кто может предотвратить страшные ... 9.9 10 11
Info! Золотая раздача, скачанное не засчитывается.
Торрент: Зарегистрирован [2013-09-06 15:43] · скачан: 84 раз
Статус: √ проверено
Размер: 7.75 GB
Как cкачать? Как скачать Блэйд 3: Троица через торрент | qTorrent

% Раздел Тема Автор DL S | L
Фильмы 2001-2005 [ 2.17 GB ] Блэйд 3: Троица / Blade: Trinity [2004 HDRip-AVC ] winchester00100010 Скачать
1 | 0
Фильмы 2001-2005 [ 1.46 GB ] Блэйд 3: Троица / Blade: Trinity [Режиссерская версия / Unrated] [2004 DVDRip ] Sудья Скачать
1 | 0
Фильмы 2001-2005 [ 2.18 GB ] Блэйд 3: Троица / Blade: Trinity [2004 BDRip] Andruuha Скачать
1 | 0

28-11-2019 20:33  

Отключить всю рекламу на сайте

06-10-2013 14:15 Блэйд 3: Троица Скачать торрент  

блин станьте на раздачу ни как скачать не могуpb.wtf



    Дорогой пользователь! Огромная просьба, поблагодарите релизера, оцените раздачу и оставьте свои комментарий, если Вы скачали Блэйд 3: Троица через торрент бесплатно! Внесите свою лепту в развитие PiratBit!
    Комментировать посты могут только пользователи прошедшие не сложную регистрацию
    Показать сообщения:    

    Блэйд 3: Троица через торрент
    Скачать бесплатно Блэйд 3: Троица
    Блэйд 3: Троица скачать торрент
    Блэйд 3: Троица смотреть онлайн
    Cкачать фильм Блэйд 3: Троица бесплатно
    Блэйд 3: Троица скачать торрент в хорошем качестве
    Блэйд 3: Троица смотреть онлайн бесплатно в хорошем качестве


    Вы не можете начинать темы
    Вы не можете отвечать на сообщения
    Вы не можете редактировать свои сообщения
    Вы не можете удалять свои сообщения
    Вы не можете голосовать в опросах
    Вы не можете прикреплять файлы к сообщениям
    Вы можете скачивать файлы