Ссылка на приватное зеркало нашего сайта всего за 1$. Внимание количество ограничено!!!

2 сезон

iTunes

1 сезон

1

iTunes

iTunes

iTunes

1 сезон

RePack

30

ИГРА 18+

pack

ВАЖНО

!!Акция!!

Alien_RageХит недели

RePack

MK11
pack

Забери бонус

RePack

jed

!!Акция!!

Alien_Rage

RePack

fifa19

RePack

Assassins Creed: Odyssey

RePack

NEED FOR SPEED™ PAYBACK

4 сезон

9 сезон

Бесстыжие 9 сезон

Все сериалы

все сериалы на PB.wtf

RePack

FAR CRY 5
  

Византия / Byzantium (Нил Джордан / Neil Jordan) [2012, Великобритания, США, Ирландия, фэнтези, триллер, драма, WEB-DLRip, VO ] pb.wtf

Византия через торрент pb.wtf

Размер: 1.46 GB | Добавлен: 7 лет 1 мес. назад | Торрент скачан:68 раз
Скачать  

07-08-2013 16:30 Византия Скачать торрент  

Византия / Byzantium

«Нет связи крепче, чем узы крови»

  • Год выпуска:2012
  • Страна:Великобритания, США, Ирландия
  • Жанр:фэнтези, триллер, драма
  • Продолжительность: 01:58:07
  • Перевод:Любительский (одноголосый)[datynet], перевод [whiteness и pandapops]

  • Субтитры: Нет
    • Режиссер:Нил Джордан / Neil Jordan

  • В ролях:Сирша Ронан (Eleanor), Бэрри Кессин (Robert Fowlds), Джемма Артертон (Clara), Дэвид Хип (Lap Dancing Client), Уоррен Браун (Gareth), Руби Снейп (Wendy), Туре Линдхардт (Werner), Дженни Кэвэна (Barmaid), Гленн Доэрти (Steve), Эдита Будник (Nadia), Габриэла Марчинкова (Anya), Калеб Лэндри Джонс (Frank)
    • Описание:
      История партнёрства вампиров - матери и дочери, которые выдают себя за сестёр.

  • Рейтинг
    kinopoisk.ru: 6.578 (740)
    imdb.com: 6.80 (2 429)
    MPAA: R - Лицам до 17 лет обязательно присутствие взрослого
    • Качество:WEB-DLRip
    • Формат:AVI
    • Видео кодек: XviD
    • Аудио кодек: MP3
    • Видео: XviD, 720x304 (2.35:1), 1562 kbps, 24 fps, 0,297 bpp
    • Аудио: MP3 / 2.0 / 44 kHz / 192 kbps /


    General
    Complete name : D:ТорентыВизантия (Byzantium) (2013) WEB-DLRip-.avi
    Format : AVI
    Format/Info : Audio Video Interleave
    File size : 1.46 GiB
    Duration : 1h 58mn
    Overall bit rate : 1 764 Kbps
    Director : 03nazar03
    Writing application : VirtualDubMod 1.5.10.2 (build 2540/release)
    Writing library : VirtualDub build 34753/release

    Video
    ID : 0
    Format : MPEG-4 Visual
    Format profile : Advanced Simple@L5
    Format settings, BVOP : 1
    Format settings, QPel : No
    Format settings, GMC : No warppoints
    Format settings, Matrix : Custom
    Codec ID : XVID
    Codec ID/Hint : XviD
    Duration : 1h 58mn
    Bit rate : 1 563 Kbps
    Width : 720 pixels
    Height : 304 pixels
    Display aspect ratio : 2.35:1
    Frame rate : 24.000 fps
    Color space : YUV
    Chroma subsampling : 4:2:0
    Bit depth : 8 bits
    Scan type : Progressive
    Compression mode : Lossy
    Bits/(Pixel*Frame) : 0.297
    Stream size : 1.29 GiB (89%)
    Writing library : XviD 1.2.1 (UTC 2008-12-04)

    Audio
    ID : 1
    Format : MPEG Audio
    Format version : Version 1
    Format profile : Layer 3
    Codec ID : 55
    Codec ID/Hint : MP3
    Duration : 1h 58mn
    Bit rate mode : Constant
    Bit rate : 192 Kbps
    Channel(s) : 2 channels
    Sampling rate : 44.1 KHz
    Compression mode : Lossy
    Stream size : 162 MiB (11%)
    Alignment : Split accross interleaves
    Interleave, duration : 42 ms (1.00 video frame)
    Interleave, preload duration : 500 ms


    © Оформление by Vetalpb.wtf



  • Скачать Византия через торрент http://i5.imageban.ru/out/2013/08/07/1bb497596bca7d0e3cdaf9f07b73e086.png Скачать фильм Византия через торрент бесплантно в хорошем качестве Описание:История партнёрства вампиров - матери и дочери, которые выдают себя за сестёр.Рейтингkinopoisk.ru: 578 (740)imdb.com: 80 (2 ... 9.6 10 24
    Info! Золотая раздача, скачанное не засчитывается.
    Торрент: Зарегистрирован [2013-09-06 17:07] · скачан: 68 раз
    Статус: √ проверено
    Размер: 1.46 GB
    Как cкачать? Как скачать Византия через торрент | qTorrent

    % Раздел Тема Автор DL S | L
    BBC [ 3.67 GB ] BBC: Византия - сказания о трёх городах / Byzantium: A Tale of Three Cities / Серии: 1-3 из 3 [2013 Документальный познавательный история HDTVRip 720p] DUB [SDI Media] bober100 Скачать
    1 | 0
    Фильмы 2012 [ 746 MB ] Византия / Byzantium [2012 BDRip-AVC] sokol_ok Скачать
    4 | 0
    Фильмы 2012 [ 3.01 GB ] Византия / Byzantium [2012 BDRip-AVC] sokol_ok Скачать
    2 | 0
    Фильмы 2012 [ 1.45 GB ] Византия / Byzantium [2012 BDRip-AVC] sokol_ok Скачать
    2 | 0
    Фильмы 2013 [DVDrip, WEB-DLRip, HDrip] [ 1.46 GB ] Византия / Byzantium [2012 Ирландия WEB-DLRip [лицензия] Ворон Скачать
    1 | 0
    Фильмы 2012 [ 2.19 GB ] Византия / Byzantium [2012 Ирландия HDRip [лицензия] Ворон Скачать
    1 | 0
    Фильмы 2012 [ 1.46 GB ] Византия / Byzantium [2012 Ирландия WEB-DLRip] MVO Ворон Скачать
    1 | 0

    28-11-2019 20:33  

    Отключить всю рекламу на сайте

    07-08-2013 17:42 Византия Скачать торрент  

    Спасибо! посмотрю только из-за Сирши Ронан.pb.wtf



    08-08-2013 01:35 Византия Скачать торрент  

    спасибо, посмотрим че там кого)) вроде как раньше с этой командой переводчиков на сталкивался, надеюсь не подведутpb.wtf



    08-08-2013 05:08 Византия Скачать торрент  

    Судя по семплу, качество неплохое, но переводчик жестоко тормозит, убивает фильм.pb.wtf



    08-08-2013 08:43 Византия Скачать торрент  

    DeN72
    aser78
    Mihamiha

    Посмотрели? Отписались.... :slow:pb.wtf



    08-08-2013 10:41 Византия Скачать торрент  

    Mr.Barracuda
    я в выходные буду смотреть, так что качай на свой страх и риск)pb.wtf



      Дорогой пользователь! Огромная просьба, поблагодарите релизера, оцените раздачу и оставьте свои комментарий, если Вы скачали Византия через торрент бесплатно! Внесите свою лепту в развитие PiratBit!
      Комментировать посты могут только пользователи прошедшие не сложную регистрацию
      Показать сообщения:    

      Византия через торрент
      Скачать бесплатно Византия
      Византия скачать торрент
      Византия смотреть онлайн
      Cкачать фильм Византия бесплатно
      Византия скачать торрент в хорошем качестве
      Византия смотреть онлайн бесплатно в хорошем качестве


      Вы не можете начинать темы
      Вы не можете отвечать на сообщения
      Вы не можете редактировать свои сообщения
      Вы не можете удалять свои сообщения
      Вы не можете голосовать в опросах
      Вы не можете прикреплять файлы к сообщениям
      Вы можете скачивать файлы